  0
SECTION
  2
HEADER
  9
$ACADVER
  1
AC1024
  9
$ACADMAINTVER
 70
     6
  9
$DWGCODEPAGE
  3
ANSI_932
  9
$INSBASE
 10
0.0
 20
0.0
 30
0.0
  9
$EXTMIN
 10
-711.0
 20
-707.5
 30
0.0
  9
$EXTMAX
 10
670.5
 20
576.5
 30
0.0
  9
$LIMMIN
 10
-210.0
 20
-148.5
  9
$LIMMAX
 10
210.0
 20
148.5
  9
$ORTHOMODE
 70
     0
  9
$REGENMODE
 70
     1
  9
$FILLMODE
 70
     1
  9
$QTEXTMODE
 70
     0
  9
$MIRRTEXT
 70
     1
  9
$LTSCALE
 40
0.25
  9
$ATTMODE
 70
     1
  9
$TEXTSIZE
 40
0.2
  9
$TRACEWID
 40
0.05
  9
$TEXTSTYLE
  7
Standard
  9
$CLAYER
  8
0
  9
$CELTYPE
  6
ByLayer
  9
$CECOLOR
 62
   256
  9
$CELTSCALE
 40
1.0
  9
$DISPSILH
 70
     0
  9
$DIMSCALE
 40
1.0
  9
$DIMASZ
 40
3.000001907348633
  9
$DIMEXO
 40
1.0
  9
$DIMDLI
 40
10.0
  9
$DIMRND
 40
0.0
  9
$DIMDLE
 40
0.0
  9
$DIMEXE
 40
1.0
  9
$DIMTP
 40
0.0
  9
$DIMTM
 40
0.0
  9
$DIMTXT
 40
4.5
  9
$DIMCEN
 40
0.0
  9
$DIMTSZ
 40
0.0
  9
$DIMTOL
 70
     0
  9
$DIMLIM
 70
     0
  9
$DIMTIH
 70
     0
  9
$DIMTOH
 70
     0
  9
$DIMSE1
 70
     0
  9
$DIMSE2
 70
     0
  9
$DIMTAD
 70
     1
  9
$DIMZIN
 70
     8
  9
$DIMBLK
  1

  9
$DIMASO
 70
     1
  9
$DIMSHO
 70
     1
  9
$DIMPOST
  1

  9
$DIMAPOST
  1

  9
$DIMALT
 70
     0
  9
$DIMALTD
 70
     2
  9
$DIMALTF
 40
0.0393700787401575
  9
$DIMLFAC
 40
1.0
  9
$DIMTOFL
 70
     0
  9
$DIMTVP
 40
0.0
  9
$DIMTIX
 70
     0
  9
$DIMSOXD
 70
     0
  9
$DIMSAH
 70
     0
  9
$DIMBLK1
  1

  9
$DIMBLK2
  1

  9
$DIMSTYLE
  2
Standard
  9
$DIMCLRD
 70
     0
  9
$DIMCLRE
 70
     0
  9
$DIMCLRT
 70
     0
  9
$DIMTFAC
 40
0.65
  9
$DIMGAP
 40
0.09
  9
$DIMJUST
 70
     0
  9
$DIMSD1
 70
     0
  9
$DIMSD2
 70
     0
  9
$DIMTOLJ
 70
     0
  9
$DIMTZIN
 70
     0
  9
$DIMALTZ
 70
     0
  9
$DIMALTTZ
 70
     0
  9
$DIMUPT
 70
     0
  9
$DIMDEC
 70
     2
  9
$DIMTDEC
 70
     2
  9
$DIMALTU
 70
     2
  9
$DIMALTTD
 70
     2
  9
$DIMTXSTY
  7
Standard
  9
$DIMAUNIT
 70
     0
  9
$DIMADEC
 70
     2
  9
$DIMALTRND
 40
0.0
  9
$DIMAZIN
 70
     2
  9
$DIMDSEP
 70
    46
  9
$DIMATFIT
 70
     3
  9
$DIMFRAC
 70
     0
  9
$DIMLDRBLK
  1

  9
$DIMLUNIT
 70
     2
  9
$DIMLWD
 70
    -2
  9
$DIMLWE
 70
    -2
  9
$DIMTMOVE
 70
     0
  9
$DIMFXL
 40
1.0
  9
$DIMFXLON
 70
     0
  9
$DIMJOGANG
 40
0.7853981633974483
  9
$DIMTFILL
 70
     0
  9
$DIMTFILLCLR
 70
     0
  9
$DIMARCSYM
 70
     1
  9
$DIMLTYPE
  6

  9
$DIMLTEX1
  6

  9
$DIMLTEX2
  6

  9
$DIMTXTDIRECTION
 70
     0
  9
$LUNITS
 70
     2
  9
$LUPREC
 70
     4
  9
$SKETCHINC
 40
0.1
  9
$FILLETRAD
 40
0.5
  9
$AUNITS
 70
     0
  9
$AUPREC
 70
     0
  9
$MENU
  1
.
  9
$ELEVATION
 40
0.0
  9
$PELEVATION
 40
0.0
  9
$THICKNESS
 40
0.0
  9
$LIMCHECK
 70
     0
  9
$CHAMFERA
 40
0.0
  9
$CHAMFERB
 40
0.0
  9
$CHAMFERC
 40
0.0
  9
$CHAMFERD
 40
0.0
  9
$SKPOLY
 70
     0
  9
$TDCREATE
 40
2460923.543762384
  9
$TDUCREATE
 40
2460923.168762384
  9
$TDUPDATE
 40
2460923.543762384
  9
$TDUUPDATE
 40
2460923.168762384
  9
$TDINDWG
 40
0.0000000116
  9
$TDUSRTIMER
 40
0.0000000116
  9
$USRTIMER
 70
     1
  9
$ANGBASE
 50
0.0
  9
$ANGDIR
 70
     0
  9
$PDMODE
 70
     0
  9
$PDSIZE
 40
1.0
  9
$PLINEWID
 40
0.0
  9
$SPLFRAME
 70
     0
  9
$SPLINETYPE
 70
     6
  9
$SPLINESEGS
 70
     8
  9
$HANDSEED
  5
424
  9
$SURFTAB1
 70
     6
  9
$SURFTAB2
 70
     6
  9
$SURFTYPE
 70
     6
  9
$SURFU
 70
     6
  9
$SURFV
 70
     6
  9
$UCSBASE
  2

  9
$UCSNAME
  2

  9
$UCSORG
 10
0.0
 20
0.0
 30
0.0
  9
$UCSXDIR
 10
1.0
 20
0.0
 30
0.0
  9
$UCSYDIR
 10
0.0
 20
1.0
 30
0.0
  9
$UCSORTHOREF
  2

  9
$UCSORTHOVIEW
 70
     0
  9
$UCSORGTOP
 10
0.0
 20
0.0
 30
0.0
  9
$UCSORGBOTTOM
 10
0.0
 20
0.0
 30
0.0
  9
$UCSORGLEFT
 10
0.0
 20
0.0
 30
0.0
  9
$UCSORGRIGHT
 10
0.0
 20
0.0
 30
0.0
  9
$UCSORGFRONT
 10
0.0
 20
0.0
 30
0.0
  9
$UCSORGBACK
 10
0.0
 20
0.0
 30
0.0
  9
$PUCSBASE
  2

  9
$PUCSNAME
  2

  9
$PUCSORG
 10
0.0
 20
0.0
 30
0.0
  9
$PUCSXDIR
 10
1.0
 20
0.0
 30
0.0
  9
$PUCSYDIR
 10
0.0
 20
1.0
 30
0.0
  9
$PUCSORTHOREF
  2

  9
$PUCSORTHOVIEW
 70
     0
  9
$PUCSORGTOP
 10
0.0
 20
0.0
 30
0.0
  9
$PUCSORGBOTTOM
 10
0.0
 20
0.0
 30
0.0
  9
$PUCSORGLEFT
 10
0.0
 20
0.0
 30
0.0
  9
$PUCSORGRIGHT
 10
0.0
 20
0.0
 30
0.0
  9
$PUCSORGFRONT
 10
0.0
 20
0.0
 30
0.0
  9
$PUCSORGBACK
 10
0.0
 20
0.0
 30
0.0
  9
$USERI1
 70
     0
  9
$USERI2
 70
     0
  9
$USERI3
 70
     0
  9
$USERI4
 70
     0
  9
$USERI5
 70
     0
  9
$USERR1
 40
0.0
  9
$USERR2
 40
0.0
  9
$USERR3
 40
0.0
  9
$USERR4
 40
0.0
  9
$USERR5
 40
0.0
  9
$WORLDVIEW
 70
     1
  9
$SHADEDGE
 70
     3
  9
$SHADEDIF
 70
    70
  9
$TILEMODE
 70
     1
  9
$MAXACTVP
 70
    64
  9
$PINSBASE
 10
0.0
 20
0.0
 30
0.0
  9
$PLIMCHECK
 70
     0
  9
$PEXTMIN
 10
1.000000000000000E+20
 20
1.000000000000000E+20
 30
1.000000000000000E+20
  9
$PEXTMAX
 10
-1.000000000000000E+20
 20
-1.000000000000000E+20
 30
-1.000000000000000E+20
  9
$PLIMMIN
 10
0.0
 20
0.0
  9
$PLIMMAX
 10
12.0
 20
9.0
  9
$UNITMODE
 70
     0
  9
$VISRETAIN
 70
     0
  9
$PLINEGEN
 70
     1
  9
$PSLTSCALE
 70
     0
  9
$TREEDEPTH
 70
  3020
  9
$CMLSTYLE
  2
Standard
  9
$CMLJUST
 70
     0
  9
$CMLSCALE
 40
1.0
  9
$PROXYGRAPHICS
 70
     0
  9
$MEASUREMENT
 70
     1
  9
$CELWEIGHT
370
    -1
  9
$ENDCAPS
280
     0
  9
$JOINSTYLE
280
     0
  9
$LWDISPLAY
290
     1
  9
$INSUNITS
 70
     4
  9
$HYPERLINKBASE
  1

  9
$STYLESHEET
  1

  9
$XEDIT
290
     1
  9
$CEPSNTYPE
380
     0
  9
$PSTYLEMODE
290
     1
  9
$FINGERPRINTGUID
  2
{157891e2-d8dd-40ca-9b11-55aadbcfb3f5}
  9
$VERSIONGUID
  2
{FAEB1C32-E019-11D5-929B-00C0DF256EC4}
  9
$EXTNAMES
290
     1
  9
$PSVPSCALE
 40
0.0
  9
$OLESTARTUP
290
     0
  9
$SORTENTS
280
   127
  9
$INDEXCTL
280
     0
  9
$HIDETEXT
280
     1
  9
$XCLIPFRAME
280
     2
  9
$HALOGAP
280
     0
  9
$OBSCOLOR
 70
   257
  9
$OBSLTYPE
280
     0
  9
$INTERSECTIONDISPLAY
280
     0
  9
$INTERSECTIONCOLOR
 70
   257
  9
$DIMASSOC
280
     2
  9
$PROJECTNAME
  1

  9
$CAMERADISPLAY
290
     0
  9
$LENSLENGTH
 40
50.0
  9
$CAMERAHEIGHT
 40
0.0
  9
$STEPSPERSEC
 40
2.0
  9
$STEPSIZE
 40
6.0
  9
$3DDWFPREC
 40
2.0
  9
$PSOLWIDTH
 40
0.25
  9
$PSOLHEIGHT
 40
4.0
  9
$LOFTANG1
 40
1.570796326794897
  9
$LOFTANG2
 40
1.570796326794897
  9
$LOFTMAG1
 40
0.0
  9
$LOFTMAG2
 40
0.0
  9
$LOFTPARAM
 70
     7
  9
$LOFTNORMALS
280
     1
  9
$LATITUDE
 40
37.795
  9
$LONGITUDE
 40
-122.394
  9
$NORTHDIRECTION
 40
0.0
  9
$TIMEZONE
 70
 -8000
  9
$LIGHTGLYPHDISPLAY
280
     1
  9
$TILEMODELIGHTSYNCH
280
     1
  9
$CMATERIAL
347
44
  9
$SOLIDHIST
280
     0
  9
$SHOWHIST
280
     1
  9
$DWFFRAME
280
     2
  9
$DGNFRAME
280
     2
  9
$REALWORLDSCALE
290
     1
  9
$INTERFERECOLOR
 62
   256
  9
$CSHADOW
280
     0
  9
$SHADOWPLANELOCATION
 40
0.0
  0
ENDSEC
  0
SECTION
  2
CLASSES
  0
CLASS
  1
ACDBDICTIONARYWDFLT
  2
AcDbDictionaryWithDefault
  3
ObjectDBX Classes
 90
        0
 91
        3
280
     0
281
     0
  0
CLASS
  1
VISUALSTYLE
  2
AcDbVisualStyle
  3
ObjectDBX Classes
 90
     4095
 91
        3
280
     0
281
     0
  0
CLASS
  1
MATERIAL
  2
AcDbMaterial
  3
ObjectDBX Classes
 90
     1153
 91
        3
280
     0
281
     0
  0
CLASS
  1
SCALE
  2
AcDbScale
  3
ObjectDBX Classes
 90
     1153
 91
        3
280
     0
281
     0
  0
CLASS
  1
TABLESTYLE
  2
AcDbTableStyle
  3
ObjectDBX Classes
 90
     4095
 91
        3
280
     0
281
     0
  0
CLASS
  1
MLEADERSTYLE
  2
AcDbMLeaderStyle
  3
ACDB_MLEADERSTYLE_CLASS
 90
     4095
 91
        3
280
     0
281
     0
  0
CLASS
  1
SUN
  2
AcDbSun
  3
SCENEOE
 90
     1153
 91
        3
280
     0
281
     0
  0
CLASS
  1
DICTIONARYVAR
  2
AcDbDictionaryVar
  3
ObjectDBX Classes
 90
        0
 91
        3
280
     0
281
     0
  0
CLASS
  1
CELLSTYLEMAP
  2
AcDbCellStyleMap
  3
ObjectDBX Classes
 90
     1152
 91
        3
280
     0
281
     0
  0
ENDSEC
  0
SECTION
  2
TABLES
  0
TABLE
  2
VPORT
  5
8
330
0
100
AcDbSymbolTable
 70
     1
  0
VPORT
  5
29
330
8
100
AcDbSymbolTableRecord
100
AcDbViewportTableRecord
  2
*Active
 70
     0
 10
0.0
 20
0.0
 11
1.0
 21
1.0
 12
-20.0
 22
-65.25
 13
0.0
 23
0.0
 14
0.5
 24
0.5
 15
0.5
 25
0.5
 16
0.0
 26
0.0
 36
1.0
 17
0.0
 27
0.0
 37
0.0
 40
436.05
 41
1.076023391812865
 42
50.0
 43
0.0
 44
0.0
 50
0.0
 51
0.0
 71
     0
 72
  1000
 73
     1
 74
     1
 75
     0
 76
     0
 77
     0
 78
     0
281
     0
 65
     1
110
0.0
120
0.0
130
0.0
111
1.0
121
0.0
131
0.0
112
0.0
122
1.0
132
0.0
 79
     0
146
0.0
348
2F
 60
     3
 61
     5
292
     1
282
     1
141
0.0
142
0.0
 63
   250
361
6D
  0
ENDTAB
  0
TABLE
  2
LTYPE
  5
5
330
0
100
AcDbSymbolTable
 70
    67
  0
LTYPE
  5
14
330
5
100
AcDbSymbolTableRecord
100
AcDbLinetypeTableRecord
  2
ByBlock
 70
     0
  3

 72
    65
 73
     0
 40
0.0
  0
LTYPE
  5
15
330
5
100
AcDbSymbolTableRecord
100
AcDbLinetypeTableRecord
  2
ByLayer
 70
     0
  3

 72
    65
 73
     0
 40
0.0
  0
LTYPE
  5
16
330
5
100
AcDbSymbolTableRecord
100
AcDbLinetypeTableRecord
  2
Continuous
 70
     0
  3
Solid line
 72
    65
 73
     0
 40
0.0
  0
LTYPE
  5
6F
330
5
100
AcDbSymbolTableRecord
100
AcDbLinetypeTableRecord
  2
HIDDENX2
 70
     0
  3
Hidden (2x) ____ ____ ____ ____ ____ ____ ____ 
 72
    65
 73
     2
 40
19.05
 49
12.7
 74
     0
 49
-6.35
 74
     0
  0
LTYPE
  5
70
330
5
100
AcDbSymbolTableRecord
100
AcDbLinetypeTableRecord
  2
HIDDEN
 70
     0
  3
Hidden __ __ __ __ __ __ __ __ __ __ __ __ __ __
 72
    65
 73
     2
 40
9.524999999999999
 49
6.35
 74
     0
 49
-3.175
 74
     0
  0
LTYPE
  5
71
330
5
100
AcDbSymbolTableRecord
100
AcDbLinetypeTableRecord
  2
HIDDEN2
 70
     0
  3
Hidden (.5x) _ _ _ _ _ _ _ _ _ _ _ _ _ _ _ _ _ 
 72
    65
 73
     2
 40
4.762499999999999
 49
3.175
 74
     0
 49
-1.5875
 74
     0
  0
LTYPE
  5
72
330
5
100
AcDbSymbolTableRecord
100
AcDbLinetypeTableRecord
  2
DASHED
 70
     0
  3
Dashed __ __ __ __ __ __ __ __ __ __ __ __ __ _
 72
    65
 73
     2
 40
19.05
 49
12.7
 74
     0
 49
-6.35
 74
     0
  0
LTYPE
  5
73
330
5
100
AcDbSymbolTableRecord
100
AcDbLinetypeTableRecord
  2
DASHED2
 70
     0
  3
Dashed (.5x) _ _ _ _ _ _ _ _ _ _ _ _ _ _ _ _ _ 
 72
    65
 73
     2
 40
9.524999999999999
 49
6.35
 74
     0
 49
-3.175
 74
     0
  0
LTYPE
  5
74
330
5
100
AcDbSymbolTableRecord
100
AcDbLinetypeTableRecord
  2
DASHEDX2
 70
     0
  3
Dashed (2x) ____  ____  ____  ____  ____  ___
 72
    65
 73
     2
 40
38.09999999999999
 49
25.4
 74
     0
 49
-12.7
 74
     0
  0
LTYPE
  5
75
330
5
100
AcDbSymbolTableRecord
100
AcDbLinetypeTableRecord
  2
DOTX2
 70
     0
  3
Dot (2x) .  .  .  .  .  .  .  .  .  .  .  .  .  .
 72
    65
 73
     2
 40
12.7
 49
0.0
 74
     0
 49
-12.7
 74
     0
  0
LTYPE
  5
76
330
5
100
AcDbSymbolTableRecord
100
AcDbLinetypeTableRecord
  2
DOT
 70
     0
  3
Dot . . . . . . . . . . . . . . . . . . . . . . . .
 72
    65
 73
     2
 40
6.35
 49
0.0
 74
     0
 49
-6.35
 74
     0
  0
LTYPE
  5
77
330
5
100
AcDbSymbolTableRecord
100
AcDbLinetypeTableRecord
  2
DOT2
 70
     0
  3
Dot (.5x) ........................................
 72
    65
 73
     2
 40
3.175
 49
0.0
 74
     0
 49
-3.175
 74
     0
  0
LTYPE
  5
78
330
5
100
AcDbSymbolTableRecord
100
AcDbLinetypeTableRecord
  2
CENTERX2
 70
     0
  3
Center (2x) ________  __  ________  __  _____
 72
    65
 73
     4
 40
101.6
 49
63.5
 74
     0
 49
-12.7
 74
     0
 49
12.7
 74
     0
 49
-12.7
 74
     0
  0
LTYPE
  5
79
330
5
100
AcDbSymbolTableRecord
100
AcDbLinetypeTableRecord
  2
CENTER
 70
     0
  3
Center ____ _ ____ _ ____ _ ____ _ ____ _ ____
 72
    65
 73
     4
 40
50.8
 49
31.75
 74
     0
 49
-6.35
 74
     0
 49
6.35
 74
     0
 49
-6.35
 74
     0
  0
LTYPE
  5
7A
330
5
100
AcDbSymbolTableRecord
100
AcDbLinetypeTableRecord
  2
CENTER2
 70
     0
  3
Center (.5x) ___ _ ___ _ ___ _ ___ _ ___ _ ___
 72
    65
 73
     4
 40
28.575
 49
19.05
 74
     0
 49
-3.175
 74
     0
 49
3.175
 74
     0
 49
-3.175
 74
     0
  0
LTYPE
  5
7B
330
5
100
AcDbSymbolTableRecord
100
AcDbLinetypeTableRecord
  2
DASHDOTX2
 70
     0
  3
Dash dot (2x) ____  .  ____  .  ____  .  ___
 72
    65
 73
     4
 40
50.8
 49
25.4
 74
     0
 49
-12.7
 74
     0
 49
0.0
 74
     0
 49
-12.7
 74
     0
  0
LTYPE
  5
7C
330
5
100
AcDbSymbolTableRecord
100
AcDbLinetypeTableRecord
  2
DASHDOT
 70
     0
  3
Dash dot __ . __ . __ . __ . __ . __ . __ . __
 72
    65
 73
     4
 40
25.4
 49
12.7
 74
     0
 49
-6.35
 74
     0
 49
0.0
 74
     0
 49
-6.35
 74
     0
  0
LTYPE
  5
7D
330
5
100
AcDbSymbolTableRecord
100
AcDbLinetypeTableRecord
  2
DASHDOT2
 70
     0
  3
Dash dot (.5x) _._._._._._._._._._._._._._._.
 72
    65
 73
     4
 40
12.7
 49
6.35
 74
     0
 49
-3.175
 74
     0
 49
0.0
 74
     0
 49
-3.175
 74
     0
  0
LTYPE
  5
7E
330
5
100
AcDbSymbolTableRecord
100
AcDbLinetypeTableRecord
  2
DIVIDEX2
 70
     0
  3
Divide (2x) ________  .  .  ________  .  .  _
 72
    65
 73
     6
 40
63.5
 49
25.4
 74
     0
 49
-12.7
 74
     0
 49
0.0
 74
     0
 49
-12.7
 74
     0
 49
0.0
 74
     0
 49
-12.7
 74
     0
  0
LTYPE
  5
7F
330
5
100
AcDbSymbolTableRecord
100
AcDbLinetypeTableRecord
  2
DIVIDE
 70
     0
  3
Divide ____ . . ____ . . ____ . . ____ . . ____
 72
    65
 73
     6
 40
31.75
 49
12.7
 74
     0
 49
-6.35
 74
     0
 49
0.0
 74
     0
 49
-6.35
 74
     0
 49
0.0
 74
     0
 49
-6.35
 74
     0
  0
LTYPE
  5
80
330
5
100
AcDbSymbolTableRecord
100
AcDbLinetypeTableRecord
  2
DIVIDE2
 70
     0
  3
Divide (.5x) __..__..__..__..__..__..__..__.._
 72
    65
 73
     6
 40
15.875
 49
6.35
 74
     0
 49
-3.175
 74
     0
 49
0.0
 74
     0
 49
-3.175
 74
     0
 49
0.0
 74
     0
 49
-3.175
 74
     0
  0
LTYPE
  5
81
330
5
100
AcDbSymbolTableRecord
100
AcDbLinetypeTableRecord
  2
BORDERX2
 70
     0
  3
Border (2x) ____  ____  .  ____  ____  .  ___
 72
    65
 73
     6
 40
88.89999999999999
 49
25.4
 74
     0
 49
-12.7
 74
     0
 49
25.4
 74
     0
 49
-12.7
 74
     0
 49
0.0
 74
     0
 49
-12.7
 74
     0
  0
LTYPE
  5
82
330
5
100
AcDbSymbolTableRecord
100
AcDbLinetypeTableRecord
  2
BORDER
 70
     0
  3
Border __ __ . __ __ . __ __ . __ __ . __ __ .
 72
    65
 73
     6
 40
44.45
 49
12.7
 74
     0
 49
-6.35
 74
     0
 49
12.7
 74
     0
 49
-6.35
 74
     0
 49
0.0
 74
     0
 49
-6.35
 74
     0
  0
LTYPE
  5
83
330
5
100
AcDbSymbolTableRecord
100
AcDbLinetypeTableRecord
  2
BORDER2
 70
     0
  3
Border (.5x) __.__.__.__.__.__.__.__.__.__.__.
 72
    65
 73
     6
 40
22.225
 49
6.35
 74
     0
 49
-3.175
 74
     0
 49
6.35
 74
     0
 49
-3.175
 74
     0
 49
0.0
 74
     0
 49
-3.175
 74
     0
  0
LTYPE
  5
84
330
5
100
AcDbSymbolTableRecord
100
AcDbLinetypeTableRecord
  2
PHANTOMX2
 70
     0
  3
Phantom (2x) ____________    ____    ____   _
 72
    65
 73
     6
 40
127.0
 49
63.5
 74
     0
 49
-12.7
 74
     0
 49
12.7
 74
     0
 49
-12.7
 74
     0
 49
12.7
 74
     0
 49
-12.7
 74
     0
  0
LTYPE
  5
85
330
5
100
AcDbSymbolTableRecord
100
AcDbLinetypeTableRecord
  2
PHANTOM
 70
     0
  3
Phantom ______  __  __  ______  __  __  ______ 
 72
    65
 73
     6
 40
63.5
 49
31.75
 74
     0
 49
-6.35
 74
     0
 49
6.35
 74
     0
 49
-6.35
 74
     0
 49
6.35
 74
     0
 49
-6.35
 74
     0
  0
LTYPE
  5
86
330
5
100
AcDbSymbolTableRecord
100
AcDbLinetypeTableRecord
  2
PHANTOM2
 70
     0
  3
Phantom (.5x) ___ _ _ ___ _ _ ___ _ _ ___ _ _
 72
    65
 73
     6
 40
31.75
 49
15.875
 74
     0
 49
-3.175
 74
     0
 49
3.175
 74
     0
 49
-3.175
 74
     0
 49
3.175
 74
     0
 49
-3.175
 74
     0
  0
LTYPE
  5
87
330
5
100
AcDbSymbolTableRecord
100
AcDbLinetypeTableRecord
  2
ACAD_ISO06W100
 70
     0
  3
ISO long-dash triple-dot ____ ... ____ ... ____
 72
    65
 73
     8
 40
36.0
 49
24.0
 74
     0
 49
-3.0
 74
     0
 49
0.0
 74
     0
 49
-3.0
 74
     0
 49
0.0
 74
     0
 49
-3.0
 74
     0
 49
0.0
 74
     0
 49
-3.0
 74
     0
  0
LTYPE
  5
88
330
5
100
AcDbSymbolTableRecord
100
AcDbLinetypeTableRecord
  2
ACAD_ISO13W100
 70
     0
  3
ISO double-dash double-dot __ __ . . __ __ . . _
 72
    65
 73
     8
 40
36.0
 49
12.0
 74
     0
 49
-3.0
 74
     0
 49
12.0
 74
     0
 49
-3.0
 74
     0
 49
0.0
 74
     0
 49
-3.0
 74
     0
 49
0.0
 74
     0
 49
-3.0
 74
     0
  0
LTYPE
  5
89
330
5
100
AcDbSymbolTableRecord
100
AcDbLinetypeTableRecord
  2
ACAD_ISO14W100
 70
     0
  3
ISO dash triple-dot __ . . . __ . . . __ . . . _
 72
    65
 73
     8
 40
24.0
 49
12.0
 74
     0
 49
-3.0
 74
     0
 49
0.0
 74
     0
 49
-3.0
 74
     0
 49
0.0
 74
     0
 49
-3.0
 74
     0
 49
0.0
 74
     0
 49
-3.0
 74
     0
  0
LTYPE
  5
8A
330
5
100
AcDbSymbolTableRecord
100
AcDbLinetypeTableRecord
  2
ACAD_ISO02W100
 70
     0
  3
ISO dash __ __ __ __ __ __ __ __ __ __ __ __ __
 72
    65
 73
     2
 40
15.0
 49
12.0
 74
     0
 49
-3.0
 74
     0
  0
LTYPE
  5
8B
330
5
100
AcDbSymbolTableRecord
100
AcDbLinetypeTableRecord
  2
ACAD_ISO03W100
 70
     0
  3
ISO dash space __    __    __    __    __    __
 72
    65
 73
     2
 40
30.0
 49
12.0
 74
     0
 49
-18.0
 74
     0
  0
LTYPE
  5
8C
330
5
100
AcDbSymbolTableRecord
100
AcDbLinetypeTableRecord
  2
ACAD_ISO04W100
 70
     0
  3
ISO long-dash dot ____ . ____ . ____ . ____ . _
 72
    65
 73
     4
 40
30.0
 49
24.0
 74
     0
 49
-3.0
 74
     0
 49
0.0
 74
     0
 49
-3.0
 74
     0
  0
LTYPE
  5
8D
330
5
100
AcDbSymbolTableRecord
100
AcDbLinetypeTableRecord
  2
ACAD_ISO05W100
 70
     0
  3
ISO long-dash double-dot ____ .. ____ .. ____ . 
 72
    65
 73
     6
 40
33.0
 49
24.0
 74
     0
 49
-3.0
 74
     0
 49
0.0
 74
     0
 49
-3.0
 74
     0
 49
0.0
 74
     0
 49
-3.0
 74
     0
  0
LTYPE
  5
8E
330
5
100
AcDbSymbolTableRecord
100
AcDbLinetypeTableRecord
  2
ACAD_ISO07W100
 70
     0
  3
ISO dot . . . . . . . . . . . . . . . . . . . . 
 72
    65
 73
     2
 40
3.0
 49
0.0
 74
     0
 49
-3.0
 74
     0
  0
LTYPE
  5
8F
330
5
100
AcDbSymbolTableRecord
100
AcDbLinetypeTableRecord
  2
ACAD_ISO08W100
 70
     0
  3
ISO long-dash short-dash ____ __ ____ __ ____ _
 72
    65
 73
     4
 40
36.0
 49
24.0
 74
     0
 49
-3.0
 74
     0
 49
6.0
 74
     0
 49
-3.0
 74
     0
  0
LTYPE
  5
90
330
5
100
AcDbSymbolTableRecord
100
AcDbLinetypeTableRecord
  2
ACAD_ISO09W100
 70
     0
  3
ISO long-dash double-short-dash ____ __ __ ____
 72
    65
 73
     6
 40
45.0
 49
24.0
 74
     0
 49
-3.0
 74
     0
 49
6.0
 74
     0
 49
-3.0
 74
     0
 49
6.0
 74
     0
 49
-3.0
 74
     0
  0
LTYPE
  5
91
330
5
100
AcDbSymbolTableRecord
100
AcDbLinetypeTableRecord
  2
ACAD_ISO10W100
 70
     0
  3
ISO dash dot __ . __ . __ . __ . __ . __ . __ . 
 72
    65
 73
     4
 40
18.0
 49
12.0
 74
     0
 49
-3.0
 74
     0
 49
0.0
 74
     0
 49
-3.0
 74
     0
  0
LTYPE
  5
92
330
5
100
AcDbSymbolTableRecord
100
AcDbLinetypeTableRecord
  2
ACAD_ISO11W100
 70
     0
  3
ISO double-dash dot __ __ . __ __ . __ __ . __ _
 72
    65
 73
     6
 40
33.0
 49
12.0
 74
     0
 49
-3.0
 74
     0
 49
12.0
 74
     0
 49
-3.0
 74
     0
 49
0.0
 74
     0
 49
-3.0
 74
     0
  0
LTYPE
  5
93
330
5
100
AcDbSymbolTableRecord
100
AcDbLinetypeTableRecord
  2
ACAD_ISO12W100
 70
     0
  3
ISO dash double-dot __ . . __ . . __ . . __ . . 
 72
    65
 73
     6
 40
21.0
 49
12.0
 74
     0
 49
-3.0
 74
     0
 49
0.0
 74
     0
 49
-3.0
 74
     0
 49
0.0
 74
     0
 49
-3.0
 74
     0
  0
LTYPE
  5
94
330
5
100
AcDbSymbolTableRecord
100
AcDbLinetypeTableRecord
  2
ACAD_ISO15W100
 70
     0
  3
ISO double-dash triple-dot __ __ . . . __ __ . .
 72
    65
 73
    10
 40
39.0
 49
12.0
 74
     0
 49
-3.0
 74
     0
 49
12.0
 74
     0
 49
-3.0
 74
     0
 49
0.0
 74
     0
 49
-3.0
 74
     0
 49
0.0
 74
     0
 49
-3.0
 74
     0
 49
0.0
 74
     0
 49
-3.0
 74
     0
  0
LTYPE
  5
95
330
5
100
AcDbSymbolTableRecord
100
AcDbLinetypeTableRecord
  2
JIS_02_0.7
 70
     0
  3
HIDDEN0.75 _ _ _ _ _ _ _ _ _ _ _ _ _ _ _ _ _ 
 72
    65
 73
     2
 40
1.35
 49
0.75
 74
     0
 49
-0.6
 74
     0
  0
LTYPE
  5
96
330
5
100
AcDbSymbolTableRecord
100
AcDbLinetypeTableRecord
  2
JIS_02_1.0
 70
     0
  3
HIDDEN01 _ _ _ _ _ _ _ _ _ _ _ _ _ _ _ _ _ 
 72
    65
 73
     2
 40
2.0
 49
1.0
 74
     0
 49
-1.0
 74
     0
  0
LTYPE
  5
97
330
5
100
AcDbSymbolTableRecord
100
AcDbLinetypeTableRecord
  2
JIS_02_1.2
 70
     0
  3
HIDDEN01.25  _ _ _ _ _ _ _ _ _ _ _ _ _ _ _ _ _ 
 72
    65
 73
     2
 40
2.5
 49
1.25
 74
     0
 49
-1.25
 74
     0
  0
LTYPE
  5
98
330
5
100
AcDbSymbolTableRecord
100
AcDbLinetypeTableRecord
  2
JIS_02_2.0
 70
     0
  3
HIDDEN02 __ __ __ __ __ __ __ __ __ __ __ 
 72
    65
 73
     2
 40
3.0
 49
2.0
 74
     0
 49
-1.0
 74
     0
  0
LTYPE
  5
99
330
5
100
AcDbSymbolTableRecord
100
AcDbLinetypeTableRecord
  2
JIS_02_4.0
 70
     0
  3
HIDDEN04 ____ ____ ____ ____ ____ ____ ____ 
 72
    65
 73
     2
 40
5.5
 49
4.0
 74
     0
 49
-1.5
 74
     0
  0
LTYPE
  5
9A
330
5
100
AcDbSymbolTableRecord
100
AcDbLinetypeTableRecord
  2
JIS_08_11
 70
     0
  3
1SASEN11 ___ _ ___ _ ___ _ ___ _ ___ _ ___
 72
    65
 73
     4
 40
12.8
 49
11.0
 74
     0
 49
-0.6
 74
     0
 49
0.6
 74
     0
 49
-0.6
 74
     0
  0
LTYPE
  5
9B
330
5
100
AcDbSymbolTableRecord
100
AcDbLinetypeTableRecord
  2
JIS_08_15
 70
     0
  3
1SASEN15 ____ _ ____ _ ____ _ ____ _ ____ 
 72
    65
 73
     4
 40
17.25
 49
15.0
 74
     0
 49
-0.75
 74
     0
 49
0.75
 74
     0
 49
-0.75
 74
     0
  0
LTYPE
  5
9C
330
5
100
AcDbSymbolTableRecord
100
AcDbLinetypeTableRecord
  2
JIS_08_25
 70
     0
  3
1SASEN25 ________  __  ________  __  _____
 72
    65
 73
     4
 40
28.0
 49
25.0
 74
     0
 49
-1.125
 74
     0
 49
0.75
 74
     0
 49
-1.125
 74
     0
  0
LTYPE
  5
9D
330
5
100
AcDbSymbolTableRecord
100
AcDbLinetypeTableRecord
  2
JIS_08_37
 70
     0
  3
1SASEN37 ________  __  ________  __  _____
 72
    65
 73
     4
 40
40.5
 49
37.5
 74
     0
 49
-1.125
 74
     0
 49
0.75
 74
     0
 49
-1.125
 74
     0
  0
LTYPE
  5
9E
330
5
100
AcDbSymbolTableRecord
100
AcDbLinetypeTableRecord
  2
JIS_08_50
 70
     0
  3
1SASEN50 _______________  __  ____________
 72
    65
 73
     4
 40
53.0
 49
50.0
 74
     0
 49
-1.125
 74
     0
 49
0.75
 74
     0
 49
-1.125
 74
     0
  0
LTYPE
  5
9F
330
5
100
AcDbSymbolTableRecord
100
AcDbLinetypeTableRecord
  2
JIS_09_08
 70
     0
  3
2SASEN8 __ _ _ __ _ _ __ _ _ __ _ _ __ _ _ 
 72
    65
 73
     6
 40
10.75
 49
8.0
 74
     0
 49
-0.55
 74
     0
 49
0.55
 74
     0
 49
-0.55
 74
     0
 49
0.55
 74
     0
 49
-0.55
 74
     0
  0
LTYPE
  5
A0
330
5
100
AcDbSymbolTableRecord
100
AcDbLinetypeTableRecord
  2
JIS_09_15
 70
     0
  3
2SASEN15 ___ _ _ ___ _ _ ___ _ _ ___ _ _ ___ 
 72
    65
 73
     6
 40
18.9
 49
15.0
 74
     0
 49
-0.9
 74
     0
 49
0.6
 74
     0
 49
-0.9
 74
     0
 49
0.6
 74
     0
 49
-0.9
 74
     0
  0
LTYPE
  5
A1
330
5
100
AcDbSymbolTableRecord
100
AcDbLinetypeTableRecord
  2
JIS_09_29
 70
     0
  3
2SASEN29 ______　__  __  ______　__  __  ___
 72
    65
 73
     6
 40
34.0
 49
29.0
 74
     0
 49
-1.2
 74
     0
 49
0.7
 74
     0
 49
-1.2
 74
     0
 49
0.7
 74
     0
 49
-1.2
 74
     0
  0
LTYPE
  5
A2
330
5
100
AcDbSymbolTableRecord
100
AcDbLinetypeTableRecord
  2
JIS_09_50
 70
     0
  3
2SASEN50 ____________　__  __  _____________
 72
    65
 73
     6
 40
55.0
 49
50.0
 74
     0
 49
-1.2
 74
     0
 49
0.7
 74
     0
 49
-1.2
 74
     0
 49
0.7
 74
     0
 49
-1.2
 74
     0
  0
LTYPE
  5
A3
330
5
100
AcDbSymbolTableRecord
100
AcDbLinetypeTableRecord
  2
SXF_破線
 70
     0
  3
02 dashed -- -- -- -- -- --
 72
    65
 73
     2
 40
7.5
 49
6.0
 74
     0
 49
-1.5
 74
     0
  0
LTYPE
  5
A4
330
5
100
AcDbSymbolTableRecord
100
AcDbLinetypeTableRecord
  2
SXF_跳び破線
 70
     0
  3
03 dashed_spaced --  --  --  --
 72
    65
 73
     2
 40
12.0
 49
6.0
 74
     0
 49
-6.0
 74
     0
  0
LTYPE
  5
A5
330
5
100
AcDbSymbolTableRecord
100
AcDbLinetypeTableRecord
  2
SXF_一点長鎖線
 70
     0
  3
04 long_dashed_dotted ---- . ---- . ----
 72
    65
 73
     4
 40
15.25
 49
12.0
 74
     0
 49
-1.5
 74
     0
 49
0.25
 74
     0
 49
-1.5
 74
     0
  0
LTYPE
  5
A6
330
5
100
AcDbSymbolTableRecord
100
AcDbLinetypeTableRecord
  2
SXF_二点長鎖線
 70
     0
  3
05 long_dashed_double-dotted ---- . . ---- 
 72
    65
 73
     6
 40
17.0
 49
12.0
 74
     0
 49
-1.5
 74
     0
 49
0.25
 74
     0
 49
-1.5
 74
     0
 49
0.25
 74
     0
 49
-1.5
 74
     0
  0
LTYPE
  5
A7
330
5
100
AcDbSymbolTableRecord
100
AcDbLinetypeTableRecord
  2
SXF_三点長鎖線
 70
     0
  3
06 long_dashed_triplicate-dotted ---- ... ---- 
 72
    65
 73
     8
 40
18.75
 49
12.0
 74
     0
 49
-1.5
 74
     0
 49
0.25
 74
     0
 49
-1.5
 74
     0
 49
0.25
 74
     0
 49
-1.5
 74
     0
 49
0.25
 74
     0
 49
-1.5
 74
     0
  0
LTYPE
  5
A8
330
5
100
AcDbSymbolTableRecord
100
AcDbLinetypeTableRecord
  2
SXF_点線
 70
     0
  3
07 dotted . . . . . . . . . . . . 
 72
    65
 73
     2
 40
1.75
 49
0.25
 74
     0
 49
-1.5
 74
     0
  0
LTYPE
  5
A9
330
5
100
AcDbSymbolTableRecord
100
AcDbLinetypeTableRecord
  2
SXF_一点鎖線
 70
     0
  3
08 chain ---- - --- - --- - ---
 72
    65
 73
     4
 40
18.5
 49
12.0
 74
     0
 49
-1.5
 74
     0
 49
3.5
 74
     0
 49
-1.5
 74
     0
  0
LTYPE
  5
AA
330
5
100
AcDbSymbolTableRecord
100
AcDbLinetypeTableRecord
  2
SXF_二点鎖線
 70
     0
  3
09 chain_double_dash ---- - - ---- - - ----
 72
    65
 73
     6
 40
23.5
 49
12.0
 74
     0
 49
-1.5
 74
     0
 49
3.5
 74
     0
 49
-1.5
 74
     0
 49
3.5
 74
     0
 49
-1.5
 74
     0
  0
LTYPE
  5
AB
330
5
100
AcDbSymbolTableRecord
100
AcDbLinetypeTableRecord
  2
SXF_一点短鎖線
 70
     0
  3
10 dashed_dotted -- . -- . -- . --
 72
    65
 73
     4
 40
9.25
 49
6.0
 74
     0
 49
-1.5
 74
     0
 49
0.25
 74
     0
 49
-1.5
 74
     0
  0
LTYPE
  5
AC
330
5
100
AcDbSymbolTableRecord
100
AcDbLinetypeTableRecord
  2
SXF_一点二短鎖線
 70
     0
  3
11 double-dashed_dotted -- -- . -- --
 72
    65
 73
     6
 40
16.75
 49
6.0
 74
     0
 49
-1.5
 74
     0
 49
6.0
 74
     0
 49
-1.5
 74
     0
 49
0.25
 74
     0
 49
-1.5
 74
     0
  0
LTYPE
  5
AD
330
5
100
AcDbSymbolTableRecord
100
AcDbLinetypeTableRecord
  2
SXF_二点短鎖線
 70
     0
  3
12 dashed_double_dotted -- . . -- . . --
 72
    65
 73
     6
 40
11.0
 49
6.0
 74
     0
 49
-1.5
 74
     0
 49
0.25
 74
     0
 49
-1.5
 74
     0
 49
0.25
 74
     0
 49
-1.5
 74
     0
  0
LTYPE
  5
AE
330
5
100
AcDbSymbolTableRecord
100
AcDbLinetypeTableRecord
  2
SXF_二点二短鎖線
 70
     0
  3
13 double-dashed_double-dotted -- -- . . -- --
 72
    65
 73
     8
 40
18.5
 49
6.0
 74
     0
 49
-1.5
 74
     0
 49
6.0
 74
     0
 49
-1.5
 74
     0
 49
0.25
 74
     0
 49
-1.5
 74
     0
 49
0.25
 74
     0
 49
-1.5
 74
     0
  0
LTYPE
  5
AF
330
5
100
AcDbSymbolTableRecord
100
AcDbLinetypeTableRecord
  2
SXF_三点短鎖線
 70
     0
  3
14 dashed triplicate-dotted -- . . . -- . . . --
 72
    65
 73
     8
 40
12.75
 49
6.0
 74
     0
 49
-1.5
 74
     0
 49
0.25
 74
     0
 49
-1.5
 74
     0
 49
0.25
 74
     0
 49
-1.5
 74
     0
 49
0.25
 74
     0
 49
-1.5
 74
     0
  0
LTYPE
  5
B0
330
5
100
AcDbSymbolTableRecord
100
AcDbLinetypeTableRecord
  2
SXF_三点二短鎖線
 70
     0
  3
15 double-dashed triplicate-dotted -- -- . . . -- -- 
 72
    65
 73
    10
 40
20.25
 49
6.0
 74
     0
 49
-1.5
 74
     0
 49
6.0
 74
     0
 49
-1.5
 74
     0
 49
0.25
 74
     0
 49
-1.5
 74
     0
 49
0.25
 74
     0
 49
-1.5
 74
     0
 49
0.25
 74
     0
 49
-1.5
 74
     0
  0
ENDTAB
  0
TABLE
  2
LAYER
  5
2
330
0
100
AcDbSymbolTable
 70
     3
  0
LAYER
  5
10
330
2
100
AcDbSymbolTableRecord
100
AcDbLayerTableRecord
  2
0
 70
     0
 62
     7
  6
Continuous
370
    -3
390
F
347
46
  0
LAYER
  5
B1
330
2
100
AcDbSymbolTableRecord
100
AcDbLayerTableRecord
  2
Layer0016
 70
     0
 62
     7
  6
Continuous
370
    -3
390
F
347
46
  0
LAYER
  5
B2
330
2
100
AcDbSymbolTableRecord
100
AcDbLayerTableRecord
  2
ZUWAKU
 70
     0
 62
     7
  6
Continuous
370
    -3
390
F
347
46
  0
ENDTAB
  0
TABLE
  2
STYLE
  5
3
330
0
100
AcDbSymbolTable
 70
     2
  0
STYLE
  5
11
330
3
100
AcDbSymbolTableRecord
100
AcDbTextStyleTableRecord
  2
Standard
 70
     0
 40
0.0
 41
1.0
 50
0.0
 71
     0
 42
0.2
  3
txt.shx
  4
extfont2.shx
  0
STYLE
  5
17F
330
3
100
AcDbSymbolTableRecord
100
AcDbTextStyleTableRecord
  2
dcStyle0
 70
     0
 40
0.0
 41
0.5
 50
0.0
 71
     0
 42
0.2
  3
txt.shx
  4
extfont2
  0
ENDTAB
  0
TABLE
  2
VIEW
  5
6
330
0
100
AcDbSymbolTable
 70
     0
  0
ENDTAB
  0
TABLE
  2
UCS
  5
7
330
0
100
AcDbSymbolTable
 70
     0
  0
ENDTAB
  0
TABLE
  2
APPID
  5
9
330
0
100
AcDbSymbolTable
 70
     2
  0
APPID
  5
12
330
9
100
AcDbSymbolTableRecord
100
AcDbRegAppTableRecord
  2
ACAD
 70
     0
  0
APPID
  5
6E
330
9
100
AcDbSymbolTableRecord
100
AcDbRegAppTableRecord
  2
DaFusionOut
 70
     0
  0
ENDTAB
  0
TABLE
  2
DIMSTYLE
  5
A
330
0
100
AcDbSymbolTable
 70
     2
100
AcDbDimStyleTable
  0
DIMSTYLE
105
27
330
A
100
AcDbSymbolTableRecord
100
AcDbDimStyleTableRecord
  2
Standard
 70
     0
178
     0
340
11
  0
DIMSTYLE
105
3D7
102
{ACAD_REACTORS
330
3D6
330
3D8
330
3D9
330
3DA
330
3DB
330
3DC
330
3DD
330
3E0
330
3E1
330
3E3
330
3E4
102
}
330
A
100
AcDbSymbolTableRecord
100
AcDbDimStyleTableRecord
  2
dc_Rotated
 70
     0
 41
3.000001907348633
 42
1.0
 44
1.0
 90
        1
 73
     0
 74
     0
 77
     3
 78
     8
 79
     2
140
4.5
147
1.0
172
     1
173
     1
176
     2
177
     2
271
     2
178
     4
271
     2
274
     4
283
     0
284
     8
288
     1
340
17F
343
177
344
177
  0
ENDTAB
  0
TABLE
  2
BLOCK_RECORD
  5
1
330
0
100
AcDbSymbolTable
 70
    42
  0
BLOCK_RECORD
  5
1F
330
1
100
AcDbSymbolTableRecord
100
AcDbBlockTableRecord
  2
*Model_Space
340
22
 70
     0
280
     1
281
     0
  0
BLOCK_RECORD
  5
1B
330
1
100
AcDbSymbolTableRecord
100
AcDbBlockTableRecord
  2
*Paper_Space
340
1E
 70
     0
280
     1
281
     0
  0
BLOCK_RECORD
  5
23
330
1
100
AcDbSymbolTableRecord
100
AcDbBlockTableRecord
  2
*Paper_Space0
340
26
 70
     0
280
     1
281
     0
  0
BLOCK_RECORD
  5
B4
330
1
100
AcDbSymbolTableRecord
100
AcDbBlockTableRecord
  2
DC_GROUP_COM-1709 HCJ3-50S304A_1
340
0
102
{BLKREFS
331
3CC
102
}
 70
     0
280
     1
281
     0
  0
BLOCK_RECORD
  5
B7
330
1
100
AcDbSymbolTableRecord
100
AcDbBlockTableRecord
  2
DC_GROUP_COM-1709 HCJ3-50S304A_2
340
0
102
{BLKREFS
331
3CD
102
}
 70
     0
280
     1
281
     0
  0
BLOCK_RECORD
  5
BA
330
1
100
AcDbSymbolTableRecord
100
AcDbBlockTableRecord
  2
DC_GROUP_COM-1709 HCJ3-50S304A_3
340
0
102
{BLKREFS
331
3D2
102
}
 70
     0
280
     1
281
     0
  0
BLOCK_RECORD
  5
BD
330
1
100
AcDbSymbolTableRecord
100
AcDbBlockTableRecord
  2
DC_GROUP_COM-1709 HCJ3-50S304A_4
340
0
102
{BLKREFS
331
140
102
}
 70
     0
280
     1
281
     0
  0
BLOCK_RECORD
  5
C0
330
1
100
AcDbSymbolTableRecord
100
AcDbBlockTableRecord
  2
DC_GROUP_COM-1709 HCJ3-50S304A_5
340
0
102
{BLKREFS
331
148
102
}
 70
     0
280
     1
281
     0
  0
BLOCK_RECORD
  5
C3
330
1
100
AcDbSymbolTableRecord
100
AcDbBlockTableRecord
  2
DC_GROUP_COM-1709 HCJ3-50S304A_6
340
0
102
{BLKREFS
331
153
102
}
 70
     0
280
     1
281
     0
  0
BLOCK_RECORD
  5
C6
330
1
100
AcDbSymbolTableRecord
100
AcDbBlockTableRecord
  2
DC_GROUP_COM-1709 HCJ3-50S304A_7
340
0
102
{BLKREFS
331
149
102
}
 70
     0
280
     1
281
     0
  0
BLOCK_RECORD
  5
C9
330
1
100
AcDbSymbolTableRecord
100
AcDbBlockTableRecord
  2
DC_GROUP_COM-1709 HCJ3-50S304A_8
340
0
102
{BLKREFS
331
141
102
}
 70
     0
280
     1
281
     0
  0
BLOCK_RECORD
  5
CC
330
1
100
AcDbSymbolTableRecord
100
AcDbBlockTableRecord
  2
DC_GROUP_COM-1709 HCJ3-50S304A_9
340
0
102
{BLKREFS
331
3CE
102
}
 70
     0
280
     1
281
     0
  0
BLOCK_RECORD
  5
CF
330
1
100
AcDbSymbolTableRecord
100
AcDbBlockTableRecord
  2
DC_GROUP_COM-1709 HCJ3-50S304A_10
340
0
102
{BLKREFS
331
3CF
102
}
 70
     0
280
     1
281
     0
  0
BLOCK_RECORD
  5
D2
330
1
100
AcDbSymbolTableRecord
100
AcDbBlockTableRecord
  2
DC_GROUP_COM-1709 HCJ3-50S304A_11
340
0
102
{BLKREFS
331
3D3
102
}
 70
     0
280
     1
281
     0
  0
BLOCK_RECORD
  5
D5
330
1
100
AcDbSymbolTableRecord
100
AcDbBlockTableRecord
  2
DC_GROUP_COM-1709 HCJ3-50S304A_12
340
0
102
{BLKREFS
331
3D4
102
}
 70
     0
280
     1
281
     0
  0
BLOCK_RECORD
  5
D8
330
1
100
AcDbSymbolTableRecord
100
AcDbBlockTableRecord
  2
DA_DIMGROUP_0
340
0
102
{BLKREFS
331
3D5
102
}
 70
     0
280
     1
281
     0
  0
BLOCK_RECORD
  5
DB
330
1
100
AcDbSymbolTableRecord
100
AcDbBlockTableRecord
  2
*D14
340
0
 70
     0
280
     1
281
     0
  0
BLOCK_RECORD
  5
DE
330
1
100
AcDbSymbolTableRecord
100
AcDbBlockTableRecord
  2
*D15
340
0
 70
     0
280
     1
281
     0
  0
BLOCK_RECORD
  5
E1
330
1
100
AcDbSymbolTableRecord
100
AcDbBlockTableRecord
  2
*D16
340
0
 70
     0
280
     1
281
     0
  0
BLOCK_RECORD
  5
E4
330
1
100
AcDbSymbolTableRecord
100
AcDbBlockTableRecord
  2
*D17
340
0
 70
     0
280
     1
281
     0
  0
BLOCK_RECORD
  5
E7
330
1
100
AcDbSymbolTableRecord
100
AcDbBlockTableRecord
  2
*D18
340
0
 70
     0
280
     1
281
     0
  0
BLOCK_RECORD
  5
EA
330
1
100
AcDbSymbolTableRecord
100
AcDbBlockTableRecord
  2
*D19
340
0
 70
     0
280
     1
281
     0
  0
BLOCK_RECORD
  5
ED
330
1
100
AcDbSymbolTableRecord
100
AcDbBlockTableRecord
  2
DC_GROUP_COM-1709 HCJ3-50S304A_13
340
0
102
{BLKREFS
331
3E6
102
}
 70
     0
280
     1
281
     0
  0
BLOCK_RECORD
  5
F0
330
1
100
AcDbSymbolTableRecord
100
AcDbBlockTableRecord
  2
DC_GROUP_COM-1709 HCJ3-50S304A_14
340
0
102
{BLKREFS
331
3E7
102
}
 70
     0
280
     1
281
     0
  0
BLOCK_RECORD
  5
F3
330
1
100
AcDbSymbolTableRecord
100
AcDbBlockTableRecord
  2
DC_GROUP_COM-1709 HCJ3-50S304A_15
340
0
102
{BLKREFS
331
3E8
102
}
 70
     0
280
     1
281
     0
  0
BLOCK_RECORD
  5
F6
330
1
100
AcDbSymbolTableRecord
100
AcDbBlockTableRecord
  2
DC_GROUP_COM-1709 HCJ3-50S304A_16
340
0
102
{BLKREFS
331
3E9
102
}
 70
     0
280
     1
281
     0
  0
BLOCK_RECORD
  5
F9
330
1
100
AcDbSymbolTableRecord
100
AcDbBlockTableRecord
  2
DC_GROUP_COM-1709 HCJ3-50S304A_17
340
0
102
{BLKREFS
331
3EA
102
}
 70
     0
280
     1
281
     0
  0
BLOCK_RECORD
  5
FC
330
1
100
AcDbSymbolTableRecord
100
AcDbBlockTableRecord
  2
*D25
340
0
 70
     0
280
     1
281
     0
  0
BLOCK_RECORD
  5
FF
330
1
100
AcDbSymbolTableRecord
100
AcDbBlockTableRecord
  2
DC_GROUP_COM-1709 HCJ3-50S304A_18
340
0
102
{BLKREFS
331
3DE
102
}
 70
     0
280
     1
281
     0
  0
BLOCK_RECORD
  5
102
330
1
100
AcDbSymbolTableRecord
100
AcDbBlockTableRecord
  2
DC_GROUP_COM-1709 HCJ3-50S304A_19
340
0
102
{BLKREFS
331
3D0
102
}
 70
     0
280
     1
281
     0
  0
BLOCK_RECORD
  5
105
330
1
100
AcDbSymbolTableRecord
100
AcDbBlockTableRecord
  2
DC_GROUP_COM-1709 HCJ3-50S304A_20
340
0
102
{BLKREFS
331
3DF
102
}
 70
     0
280
     1
281
     0
  0
BLOCK_RECORD
  5
108
330
1
100
AcDbSymbolTableRecord
100
AcDbBlockTableRecord
  2
DC_GROUP_COM-1709 HCJ3-50S304A_21
340
0
102
{BLKREFS
331
1DA
102
}
 70
     0
280
     1
281
     0
  0
BLOCK_RECORD
  5
10B
330
1
100
AcDbSymbolTableRecord
100
AcDbBlockTableRecord
  2
DC_GROUP_COM-1709 HCJ3-50S304A_22
340
0
102
{BLKREFS
331
1DB
102
}
 70
     0
280
     1
281
     0
  0
BLOCK_RECORD
  5
10E
330
1
100
AcDbSymbolTableRecord
100
AcDbBlockTableRecord
  2
DC_GROUP_COM-1709 HCJ3-50S304A_23
340
0
102
{BLKREFS
331
3D1
102
}
 70
     0
280
     1
281
     0
  0
BLOCK_RECORD
  5
111
330
1
100
AcDbSymbolTableRecord
100
AcDbBlockTableRecord
  2
DC_GROUP_COM-1709 HCJ3-50S304A_24
340
0
102
{BLKREFS
331
205
102
}
 70
     0
280
     1
281
     0
  0
BLOCK_RECORD
  5
114
330
1
100
AcDbSymbolTableRecord
100
AcDbBlockTableRecord
  2
*D33
340
0
 70
     0
280
     1
281
     0
  0
BLOCK_RECORD
  5
117
330
1
100
AcDbSymbolTableRecord
100
AcDbBlockTableRecord
  2
*D34
340
0
 70
     0
280
     1
281
     0
  0
BLOCK_RECORD
  5
11A
330
1
100
AcDbSymbolTableRecord
100
AcDbBlockTableRecord
  2
DC_GROUP_COM-1709 HCJ3-50S304A_25
340
0
102
{BLKREFS
331
3E2
102
}
 70
     0
280
     1
281
     0
  0
BLOCK_RECORD
  5
11D
330
1
100
AcDbSymbolTableRecord
100
AcDbBlockTableRecord
  2
DC_GROUP_COM-1709 HCJ3-50S304A_26
340
0
102
{BLKREFS
331
215
102
}
 70
     0
280
     1
281
     0
  0
BLOCK_RECORD
  5
120
330
1
100
AcDbSymbolTableRecord
100
AcDbBlockTableRecord
  2
DC_GROUP_COM-1709 HCJ3-50S304A_27
340
0
102
{BLKREFS
331
216
102
}
 70
     0
280
     1
281
     0
  0
BLOCK_RECORD
  5
123
330
1
100
AcDbSymbolTableRecord
100
AcDbBlockTableRecord
  2
*D38
340
0
 70
     0
280
     1
281
     0
  0
BLOCK_RECORD
  5
126
330
1
100
AcDbSymbolTableRecord
100
AcDbBlockTableRecord
  2
*D39
340
0
 70
     0
280
     1
281
     0
  0
BLOCK_RECORD
  5
129
330
1
100
AcDbSymbolTableRecord
100
AcDbBlockTableRecord
  2
DC_GROUP_COM-1709 HCJ3-50S304A_28
340
0
102
{BLKREFS
331
3E5
102
}
 70
     0
280
     1
281
     0
  0
BLOCK_RECORD
  5
177
330
1
100
AcDbSymbolTableRecord
100
AcDbBlockTableRecord
  2
_Open30
340
0
102
{BLKREFS
331
17D
331
17E
331
182
331
183
331
188
331
189
331
18E
331
18F
331
194
331
195
331
19A
331
19B
331
1A0
331
1A1
331
1CE
331
1CF
331
20A
331
20B
331
210
331
211
331
22A
331
22B
331
230
331
231
331
237
331
239
102
}
 70
     0
280
     1
281
     0
  0
ENDTAB
  0
ENDSEC
  0
SECTION
  2
BLOCKS
  0
BLOCK
  5
20
330
1F
100
AcDbEntity
  8
0
100
AcDbBlockBegin
  2
*Model_Space
 70
     0
 10
0.0
 20
0.0
 30
0.0
  3
*Model_Space
  1

  0
ENDBLK
  5
21
330
1F
100
AcDbEntity
  8
0
100
AcDbBlockEnd
  0
BLOCK
  5
1C
330
1B
100
AcDbEntity
 67
     1
  8
0
100
AcDbBlockBegin
  2
*Paper_Space
 70
     0
 10
0.0
 20
0.0
 30
0.0
  3
*Paper_Space
  1

  0
ENDBLK
  5
1D
330
1B
100
AcDbEntity
 67
     1
  8
0
100
AcDbBlockEnd
  0
BLOCK
  5
24
330
23
100
AcDbEntity
  8
0
100
AcDbBlockBegin
  2
*Paper_Space0
 70
     0
 10
0.0
 20
0.0
 30
0.0
  3
*Paper_Space0
  1

  0
ENDBLK
  5
25
330
23
100
AcDbEntity
  8
0
100
AcDbBlockEnd
  0
BLOCK
  5
B5
330
B4
100
AcDbEntity
  8
0
100
AcDbBlockBegin
  2
DC_GROUP_COM-1709 HCJ3-50S304A_1
 70
     0
 10
0.0
 20
0.0
 30
0.0
  3
DC_GROUP_COM-1709 HCJ3-50S304A_1
  1

  0
LINE
  5
12C
330
B4
100
AcDbEntity
  8
Layer0016
  6
Continuous
 62
     3
370
    18
100
AcDbLine
 10
-116.1304347826087
 20
58.49999999999999
 30
0.0
 11
-129.1304347826087
 21
58.49999999999999
 31
0.0
  0
LINE
  5
12D
330
B4
100
AcDbEntity
  8
Layer0016
  6
Continuous
 62
     3
370
    18
100
AcDbLine
 10
-116.1304347826087
 20
-58.50000000000001
 30
0.0
 11
-129.1304347826087
 21
-58.50000000000001
 31
0.0
  0
ARC
  5
12E
330
B4
100
AcDbEntity
  8
Layer0016
  6
Continuous
 62
     3
370
    18
100
AcDbCircle
 10
-116.1304347826087
 20
56.49999999999999
 30
0.0
 40
2.0
100
AcDbArc
 50
0.0
 51
90.0
  0
ARC
  5
12F
330
B4
100
AcDbEntity
  8
Layer0016
  6
Continuous
 62
     3
370
    18
100
AcDbCircle
 10
-129.1304347826087
 20
56.49999999999999
 30
0.0
 40
2.0
100
AcDbArc
 50
89.99999999999999
 51
180.0
  0
ARC
  5
130
330
B4
100
AcDbEntity
  8
Layer0016
  6
Continuous
 62
     3
370
    13
100
AcDbCircle
 10
-116.1304347826087
 20
-56.50000000000001
 30
0.0
 40
2.0
100
AcDbArc
 50
270.0
 51
0.0
  0
ARC
  5
131
330
B4
100
AcDbEntity
  8
Layer0016
  6
Continuous
 62
     3
370
    13
100
AcDbCircle
 10
-129.1304347826087
 20
-56.50000000000001
 30
0.0
 40
2.0
100
AcDbArc
 50
180.0
 51
270.0
  0
LINE
  5
132
330
B4
100
AcDbEntity
  8
Layer0016
  6
Continuous
 62
     3
370
    13
100
AcDbLine
 10
-131.1304347826087
 20
-56.50000000000001
 30
0.0
 11
-131.1304347826087
 21
-51.00000000000001
 31
0.0
  0
LINE
  5
133
330
B4
100
AcDbEntity
  8
Layer0016
  6
Continuous
 62
     3
370
    13
100
AcDbLine
 10
-131.1304347826087
 20
50.99999999999999
 30
0.0
 11
-131.1304347826087
 21
56.49999999999999
 31
0.0
  0
LINE
  5
134
330
B4
100
AcDbEntity
  8
Layer0016
  6
Continuous
 62
     3
370
    13
100
AcDbLine
 10
-114.1304347826087
 20
56.49999999999999
 30
0.0
 11
-114.1304347826087
 21
50.99999999999999
 31
0.0
  0
LINE
  5
135
330
B4
100
AcDbEntity
  8
Layer0016
  6
Continuous
 62
     3
370
    13
100
AcDbLine
 10
-114.1304347826087
 20
-51.00000000000001
 30
0.0
 11
-114.1304347826087
 21
-56.50000000000001
 31
0.0
  0
ENDBLK
  5
B6
330
B4
100
AcDbEntity
  8
0
100
AcDbBlockEnd
  0
BLOCK
  5
B8
330
B7
100
AcDbEntity
  8
0
100
AcDbBlockBegin
  2
DC_GROUP_COM-1709 HCJ3-50S304A_2
 70
     0
 10
0.0
 20
0.0
 30
0.0
  3
DC_GROUP_COM-1709 HCJ3-50S304A_2
  1

  0
LINE
  5
136
330
B7
100
AcDbEntity
  8
Layer0016
  6
Continuous
 62
     3
370
    18
100
AcDbLine
 10
127.1304347826087
 20
-58.50000000000001
 30
0.0
 11
140.1304347826087
 21
-58.50000000000001
 31
0.0
  0
LINE
  5
137
330
B7
100
AcDbEntity
  8
Layer0016
  6
Continuous
 62
     3
370
    18
100
AcDbLine
 10
125.1304347826087
 20
56.49999999999999
 30
0.0
 11
125.1304347826087
 21
-56.50000000000001
 31
0.0
  0
LINE
  5
138
330
B7
100
AcDbEntity
  8
Layer0016
  6
Continuous
 62
     3
370
    18
100
AcDbLine
 10
142.1304347826087
 20
-56.50000000000001
 30
0.0
 11
142.1304347826087
 21
56.49999999999999
 31
0.0
  0
ARC
  5
139
330
B7
100
AcDbEntity
  8
Layer0016
  6
Continuous
 62
     3
370
    18
100
AcDbCircle
 10
127.1304347826087
 20
-56.50000000000001
 30
0.0
 40
2.0
100
AcDbArc
 50
180.0
 51
270.0
  0
ARC
  5
13A
330
B7
100
AcDbEntity
  8
Layer0016
  6
Continuous
 62
     3
370
    18
100
AcDbCircle
 10
140.1304347826087
 20
-56.50000000000001
 30
0.0
 40
2.0
100
AcDbArc
 50
270.0
 51
0.0
  0
ARC
  5
13B
330
B7
100
AcDbEntity
  8
Layer0016
  6
Continuous
 62
     3
370
    18
100
AcDbCircle
 10
127.1304347826087
 20
56.49999999999999
 30
0.0
 40
2.0
100
AcDbArc
 50
90.0
 51
97.18075578145829
  0
ARC
  5
13C
330
B7
100
AcDbEntity
  8
Layer0016
  6
Continuous
 62
     3
370
    18
100
AcDbCircle
 10
127.1304347826087
 20
56.49999999999999
 30
0.0
 40
2.0
100
AcDbArc
 50
97.18075578145829
 51
180.0
  0
ARC
  5
13D
330
B7
100
AcDbEntity
  8
Layer0016
  6
Continuous
 62
     3
370
    18
100
AcDbCircle
 10
140.1304347826087
 20
56.49999999999999
 30
0.0
 40
2.0
100
AcDbArc
 50
0.0
 51
82.81924421854173
  0
ARC
  5
13E
330
B7
100
AcDbEntity
  8
Layer0016
  6
Continuous
 62
     3
370
    18
100
AcDbCircle
 10
140.1304347826087
 20
56.49999999999999
 30
0.0
 40
2.0
100
AcDbArc
 50
82.81924421854173
 51
90.0
  0
LINE
  5
13F
330
B7
100
AcDbEntity
  8
Layer0016
  6
Continuous
 62
     3
370
    13
100
AcDbLine
 10
127.1304347826087
 20
58.49999999999999
 30
0.0
 11
140.1304347826087
 21
58.49999999999999
 31
0.0
  0
ENDBLK
  5
B9
330
B7
100
AcDbEntity
  8
0
100
AcDbBlockEnd
  0
BLOCK
  5
BB
330
BA
100
AcDbEntity
  8
0
100
AcDbBlockBegin
  2
DC_GROUP_COM-1709 HCJ3-50S304A_3
 70
     0
 10
0.0
 20
0.0
 30
0.0
  3
DC_GROUP_COM-1709 HCJ3-50S304A_3
  1

  0
INSERT
  5
140
330
BA
100
AcDbEntity
  8
0
  6
Continuous
100
AcDbBlockReference
  2
DC_GROUP_COM-1709 HCJ3-50S304A_4
 10
0.0
 20
0.0
 30
0.0
  0
INSERT
  5
141
330
BA
100
AcDbEntity
  8
0
  6
Continuous
100
AcDbBlockReference
  2
DC_GROUP_COM-1709 HCJ3-50S304A_8
 10
0.0
 20
0.0
 30
0.0
  0
ENDBLK
  5
BC
330
BA
100
AcDbEntity
  8
0
100
AcDbBlockEnd
  0
BLOCK
  5
BE
330
BD
100
AcDbEntity
  8
0
100
AcDbBlockBegin
  2
DC_GROUP_COM-1709 HCJ3-50S304A_4
 70
     0
 10
0.0
 20
0.0
 30
0.0
  3
DC_GROUP_COM-1709 HCJ3-50S304A_4
  1

  0
LINE
  5
142
330
BD
100
AcDbEntity
  8
0
  6
Continuous
 62
     3
370
    18
100
AcDbLine
 10
131.0647210684373
 20
38.41421356237306
 30
0.0
 11
136.1961484967801
 21
38.41421356237306
 31
0.0
  0
LINE
  5
143
330
BD
100
AcDbEntity
  8
0
  6
Continuous
 62
     3
370
    18
100
AcDbLine
 10
131.0647210684373
 20
53.99999999999996
 30
0.0
 11
131.0647210684373
 21
38.41421356237306
 31
0.0
  0
LINE
  5
144
330
BD
100
AcDbEntity
  8
0
  6
Continuous
 62
     3
370
    18
100
AcDbLine
 10
136.1961484967801
 20
53.99999999999996
 30
0.0
 11
136.1961484967801
 21
38.41421356237306
 31
0.0
  0
ARC
  5
145
330
BD
100
AcDbEntity
  8
0
  6
Continuous
 62
     3
370
    18
100
AcDbCircle
 10
134.3804347826087
 20
31.68695241346144
 30
0.0
 40
7.5
100
AcDbArc
 50
96.36144686773144
 51
180.0
  0
ARC
  5
146
330
BD
100
AcDbEntity
  8
0
  6
Continuous
 62
     3
370
    18
100
AcDbCircle
 10
132.8804347826087
 20
31.68695241346144
 30
0.0
 40
7.5
100
AcDbArc
 50
0.0
 51
83.63855313226857
  0
LINE
  5
147
330
BD
100
AcDbEntity
  8
0
  6
DASHED2
 62
     4
370
    13
100
AcDbLine
 10
126.8804347826087
 20
36.99999999999996
 30
0.0
 11
140.3804347826087
 21
36.99999999999996
 31
0.0
  0
INSERT
  5
148
330
BD
100
AcDbEntity
  8
Layer0016
  6
Continuous
100
AcDbBlockReference
  2
DC_GROUP_COM-1709 HCJ3-50S304A_5
 10
0.0
 20
0.0
 30
0.0
  0
INSERT
  5
149
330
BD
100
AcDbEntity
  8
Layer0016
  6
Continuous
100
AcDbBlockReference
  2
DC_GROUP_COM-1709 HCJ3-50S304A_7
 10
0.0
 20
0.0
 30
0.0
  0
ENDBLK
  5
BF
330
BD
100
AcDbEntity
  8
0
100
AcDbBlockEnd
  0
BLOCK
  5
C1
330
C0
100
AcDbEntity
  8
0
100
AcDbBlockBegin
  2
DC_GROUP_COM-1709 HCJ3-50S304A_5
 70
     0
 10
0.0
 20
0.0
 30
0.0
  3
DC_GROUP_COM-1709 HCJ3-50S304A_5
  1

  0
LINE
  5
14A
330
C0
100
AcDbEntity
  8
Layer0016
  6
Continuous
 62
     3
370
    18
100
AcDbLine
 10
139.3804347826087
 20
18.20200351807858
 30
0.0
 11
133.6304347826087
 21
18.20200351807858
 31
0.0
  0
LINE
  5
14B
330
C0
100
AcDbEntity
  8
Layer0016
  6
Continuous
 62
     3
370
    18
100
AcDbLine
 10
140.3804347826087
 20
59.50745644066323
 30
0.0
 11
140.3804347826087
 21
19.20200351807858
 31
0.0
  0
ARC
  5
14C
330
C0
100
AcDbEntity
  8
Layer0016
  6
Continuous
 62
     3
370
    18
100
AcDbCircle
 10
139.3804347826087
 20
19.20200351807858
 30
0.0
 40
1.0
100
AcDbArc
 50
270.0
 51
0.0
  0
LINE
  5
14D
330
C0
100
AcDbEntity
  8
Layer0016
  6
Continuous
 62
     3
370
    18
100
AcDbLine
 10
127.8804347826087
 20
18.20200351807858
 30
0.0
 11
133.6304347826087
 21
18.20200351807858
 31
0.0
  0
LINE
  5
14E
330
C0
100
AcDbEntity
  8
Layer0016
  6
Continuous
 62
     3
370
    18
100
AcDbLine
 10
127.8804347826087
 20
60.50745644066323
 30
0.0
 11
139.3804347826087
 21
60.50745644066323
 31
0.0
  0
LINE
  5
14F
330
C0
100
AcDbEntity
  8
Layer0016
  6
Continuous
 62
     3
370
    18
100
AcDbLine
 10
126.8804347826087
 20
59.50745644066323
 30
0.0
 11
126.8804347826087
 21
19.20200351807858
 31
0.0
  0
ARC
  5
150
330
C0
100
AcDbEntity
  8
Layer0016
  6
Continuous
 62
     3
370
    18
100
AcDbCircle
 10
127.8804347826087
 20
19.20200351807858
 30
0.0
 40
1.0
100
AcDbArc
 50
180.0
 51
270.0
  0
ARC
  5
151
330
C0
100
AcDbEntity
  8
Layer0016
  6
Continuous
 62
     3
370
    18
100
AcDbCircle
 10
127.8804347826087
 20
59.50745644066323
 30
0.0
 40
1.0
100
AcDbArc
 50
90.0
 51
180.0
  0
ARC
  5
152
330
C0
100
AcDbEntity
  8
Layer0016
  6
Continuous
 62
     3
370
    18
100
AcDbCircle
 10
139.3804347826087
 20
59.50745644066323
 30
0.0
 40
1.0
100
AcDbArc
 50
0.0
 51
90.0
  0
INSERT
  5
153
330
C0
100
AcDbEntity
  8
Layer0016
  6
Continuous
100
AcDbBlockReference
  2
DC_GROUP_COM-1709 HCJ3-50S304A_6
 10
0.0
 20
0.0
 30
0.0
  0
ENDBLK
  5
C2
330
C0
100
AcDbEntity
  8
0
100
AcDbBlockEnd
  0
BLOCK
  5
C4
330
C3
100
AcDbEntity
  8
0
100
AcDbBlockBegin
  2
DC_GROUP_COM-1709 HCJ3-50S304A_6
 70
     0
 10
0.0
 20
0.0
 30
0.0
  3
DC_GROUP_COM-1709 HCJ3-50S304A_6
  1

  0
LINE
  5
154
330
C3
100
AcDbEntity
  8
Layer0016
  6
CENTER
 62
     2
370
    13
100
AcDbLine
 10
133.6304347826087
 20
54.99999999999996
 30
0.0
 11
133.6304347826087
 21
18.20200351807858
 31
0.0
  0
LINE
  5
155
330
C3
100
AcDbEntity
  8
Layer0016
  6
CENTER
 62
     2
370
    13
100
AcDbLine
 10
123.1304347826087
 20
44.49999999999996
 30
0.0
 11
144.1304347826087
 21
44.49999999999996
 31
0.0
  0
ENDBLK
  5
C5
330
C3
100
AcDbEntity
  8
0
100
AcDbBlockEnd
  0
BLOCK
  5
C7
330
C6
100
AcDbEntity
  8
0
100
AcDbBlockBegin
  2
DC_GROUP_COM-1709 HCJ3-50S304A_7
 70
     0
 10
0.0
 20
0.0
 30
0.0
  3
DC_GROUP_COM-1709 HCJ3-50S304A_7
  1

  0
LINE
  5
156
330
C6
100
AcDbEntity
  8
Layer0016
  6
DASHED2
 62
     4
370
    18
100
AcDbLine
 10
137.6304347826087
 20
36.99999999999996
 30
0.0
 11
129.6304347826087
 21
36.99999999999996
 31
0.0
  0
LINE
  5
157
330
C6
100
AcDbEntity
  8
Layer0016
  6
DASHED2
 62
     4
370
    18
100
AcDbLine
 10
129.6304347826087
 20
49.49999999999999
 30
0.0
 11
129.6304347826087
 21
18.20200351807859
 31
0.0
  0
LINE
  5
158
330
C6
100
AcDbEntity
  8
Layer0016
  6
DASHED2
 62
     4
370
    18
100
AcDbLine
 10
137.6304347826087
 20
18.20200351807859
 30
0.0
 11
137.6304347826087
 21
49.49999999999999
 31
0.0
  0
ENDBLK
  5
C8
330
C6
100
AcDbEntity
  8
0
100
AcDbBlockEnd
  0
BLOCK
  5
CA
330
C9
100
AcDbEntity
  8
0
100
AcDbBlockBegin
  2
DC_GROUP_COM-1709 HCJ3-50S304A_8
 70
     0
 10
0.0
 20
0.0
 30
0.0
  3
DC_GROUP_COM-1709 HCJ3-50S304A_8
  1

  0
LINE
  5
159
330
C9
100
AcDbEntity
  8
0
  6
DASHED2
 62
     4
370
    18
100
AcDbLine
 10
129.6304347826087
 20
-4.0
 30
0.0
 11
129.6304347826087
 21
18.20200351807858
 31
0.0
  0
LINE
  5
15A
330
C9
100
AcDbEntity
  8
0
  6
DASHED2
 62
     4
370
    18
100
AcDbLine
 10
137.6804347826087
 20
18.20200351807858
 30
0.0
 11
137.6804347826087
 21
-4.0
 31
0.0
  0
ENDBLK
  5
CB
330
C9
100
AcDbEntity
  8
0
100
AcDbBlockEnd
  0
BLOCK
  5
CD
330
CC
100
AcDbEntity
  8
0
100
AcDbBlockBegin
  2
DC_GROUP_COM-1709 HCJ3-50S304A_9
 70
     0
 10
0.0
 20
0.0
 30
0.0
  3
DC_GROUP_COM-1709 HCJ3-50S304A_9
  1

  0
LINE
  5
15B
330
CC
100
AcDbEntity
  8
Layer0016
  6
Continuous
 62
     3
370
    18
100
AcDbLine
 10
-66.07647058823528
 20
108.5024154589372
 30
0.0
 11
77.49999999999997
 21
108.5024154589372
 31
0.0
  0
ARC
  5
15C
330
CC
100
AcDbEntity
  8
Layer0016
  6
Continuous
 62
     3
370
    18
100
AcDbCircle
 10
56.49999999999999
 20
110.5024154589372
 30
0.0
 40
2.0
100
AcDbArc
 50
270.0
 51
0.0
  0
ARC
  5
15D
330
CC
100
AcDbEntity
  8
Layer0016
  6
Continuous
 62
     3
370
    18
100
AcDbCircle
 10
56.49999999999999
 20
123.5024154589372
 30
0.0
 40
2.0
100
AcDbArc
 50
0.0
 51
90.0
  0
LINE
  5
15E
330
CC
100
AcDbEntity
  8
Layer0016
  6
Continuous
 62
     3
370
    18
100
AcDbLine
 10
58.49999999999999
 20
121.9712172180568
 30
0.0
 11
58.49999999999999
 21
123.5024154589372
 31
0.0
  0
LINE
  5
15F
330
CC
100
AcDbEntity
  8
Layer0016
  6
Continuous
 62
     3
370
    18
100
AcDbLine
 10
58.49999999999999
 20
110.5024154589372
 30
0.0
 11
58.49999999999999
 21
112.0336136998176
 31
0.0
  0
LINE
  5
160
330
CC
100
AcDbEntity
  8
Layer0016
  6
Continuous
 62
     3
370
    18
100
AcDbLine
 10
-54.34582557838932
 20
125.5024154589372
 30
0.0
 11
-66.07647058823528
 21
125.5024154589372
 31
0.0
  0
LINE
  5
161
330
CC
100
AcDbEntity
  8
Layer0016
  6
Continuous
 62
     3
370
    18
100
AcDbLine
 10
-54.34582557838932
 20
125.5024154589372
 30
0.0
 11
77.49999999999997
 21
125.5024154589372
 31
0.0
  0
LINE
  5
162
330
CC
100
AcDbEntity
  8
Layer0016
  6
DASHED2
 62
     4
370
    13
100
AcDbLine
 10
58.49999999999999
 20
112.0336136998176
 30
0.0
 11
58.49999999999999
 21
121.9712172180568
 31
0.0
  0
ENDBLK
  5
CE
330
CC
100
AcDbEntity
  8
0
100
AcDbBlockEnd
  0
BLOCK
  5
D0
330
CF
100
AcDbEntity
  8
0
100
AcDbBlockBegin
  2
DC_GROUP_COM-1709 HCJ3-50S304A_10
 70
     0
 10
0.0
 20
0.0
 30
0.0
  3
DC_GROUP_COM-1709 HCJ3-50S304A_10
  1

  0
LINE
  5
163
330
CF
100
AcDbEntity
  8
Layer0016
  6
CENTER
 62
     2
370
    13
100
AcDbLine
 10
68.35815995023152
 20
123.5024154589372
 30
0.0
 11
68.35815995023152
 21
110.5024154589372
 31
0.0
  0
LINE
  5
164
330
CF
100
AcDbEntity
  8
Layer0016
  6
CENTER
 62
     2
370
    13
100
AcDbLine
 10
52.85815995023151
 20
117.0024154589372
 30
0.0
 11
83.8581599502315
 21
117.0024154589372
 31
0.0
  0
LINE
  5
165
330
CF
100
AcDbEntity
  8
Layer0016
  6
Continuous
 62
     3
370
    18
100
AcDbLine
 10
52.85815995023151
 20
119.5681291731086
 30
0.0
 11
52.85815995023151
 21
114.4367017447658
 31
0.0
  0
LINE
  5
166
330
CF
100
AcDbEntity
  8
Layer0016
  6
Continuous
 62
     3
370
    18
100
AcDbLine
 10
83.8581599502315
 20
119.5681291731086
 30
0.0
 11
83.8581599502315
 21
114.4367017447658
 31
0.0
  0
ARC
  5
167
330
CF
100
AcDbEntity
  8
Layer0016
  6
Continuous
 62
     3
370
    18
100
AcDbCircle
 10
68.35815995023152
 20
143.0024154589372
 30
0.0
 40
32.5
100
AcDbArc
 50
241.515364604823
 51
298.484635395177
  0
ARC
  5
168
330
CF
100
AcDbEntity
  8
Layer0016
  6
Continuous
 62
     3
370
    18
100
AcDbCircle
 10
68.35815995023152
 20
91.0024154589372
 30
0.0
 40
32.5
100
AcDbArc
 50
61.51536460482296
 51
118.4846353951771
  0
CIRCLE
  5
169
330
CF
100
AcDbEntity
  8
Layer0016
  6
DASHED2
 62
     4
370
    13
100
AcDbCircle
 10
68.35815995023152
 20
117.0024154589372
 30
0.0
 40
4.0
  0
LINE
  5
16A
330
CF
100
AcDbEntity
  8
Layer0016
  6
DASHED2
 62
     4
370
    13
100
AcDbLine
 10
60.99999999999996
 20
122.6584967411617
 30
0.0
 11
60.99999999999996
 21
111.3463341767125
 31
0.0
  0
LINE
  5
16B
330
CF
100
AcDbEntity
  8
Layer0016
  6
DASHED2
 62
     4
370
    13
100
AcDbLine
 10
75.99999999999997
 20
122.5912153831785
 30
0.0
 11
75.99999999999997
 21
111.4136155346957
 31
0.0
  0
ENDBLK
  5
D1
330
CF
100
AcDbEntity
  8
0
100
AcDbBlockEnd
  0
BLOCK
  5
D3
330
D2
100
AcDbEntity
  8
0
100
AcDbBlockBegin
  2
DC_GROUP_COM-1709 HCJ3-50S304A_11
 70
     0
 10
0.0
 20
0.0
 30
0.0
  3
DC_GROUP_COM-1709 HCJ3-50S304A_11
  1

  0
LINE
  5
16C
330
D2
100
AcDbEntity
  8
0
  6
Continuous
 62
     3
370
    18
100
AcDbLine
 10
-56.34582557838933
 20
117.0024154589372
 30
0.0
 11
-66.07647058823528
 21
117.0024154589372
 31
0.0
  0
LINE
  5
16D
330
D2
100
AcDbEntity
  8
0
  6
Continuous
 62
     3
370
    18
100
AcDbLine
 10
-67.07647058823528
 20
116.0024154589372
 30
0.0
 11
-67.07647058823528
 21
109.5024154589372
 31
0.0
  0
ARC
  5
16E
330
D2
100
AcDbEntity
  8
0
  6
Continuous
 62
     3
370
    18
100
AcDbCircle
 10
-66.07647058823528
 20
116.0024154589372
 30
0.0
 40
1.0
100
AcDbArc
 50
90.0
 51
180.0
  0
ENDBLK
  5
D4
330
D2
100
AcDbEntity
  8
0
100
AcDbBlockEnd
  0
BLOCK
  5
D6
330
D5
100
AcDbEntity
  8
0
100
AcDbBlockBegin
  2
DC_GROUP_COM-1709 HCJ3-50S304A_12
 70
     0
 10
0.0
 20
0.0
 30
0.0
  3
DC_GROUP_COM-1709 HCJ3-50S304A_12
  1

  0
LINE
  5
16F
330
D5
100
AcDbEntity
  8
0
  6
Continuous
 62
     3
370
    18
100
AcDbLine
 10
-57.07647058823529
 20
117.0024154589372
 30
0.0
 11
-66.07647058823528
 21
117.0024154589372
 31
0.0
  0
LINE
  5
170
330
D5
100
AcDbEntity
  8
0
  6
Continuous
 62
     3
370
    18
100
AcDbLine
 10
-56.07647058823529
 20
118.0024154589372
 30
0.0
 11
-56.07647058823529
 21
124.5024154589372
 31
0.0
  0
LINE
  5
171
330
D5
100
AcDbEntity
  8
0
  6
Continuous
 62
     3
370
    18
100
AcDbLine
 10
-67.07647058823528
 20
118.0024154589372
 30
0.0
 11
-67.07647058823528
 21
124.5024154589372
 31
0.0
  0
ARC
  5
172
330
D5
100
AcDbEntity
  8
0
  6
Continuous
 62
     3
370
    18
100
AcDbCircle
 10
-57.07647058823529
 20
118.0024154589372
 30
0.0
 40
1.0
100
AcDbArc
 50
270.0
 51
0.0
  0
ARC
  5
173
330
D5
100
AcDbEntity
  8
0
  6
Continuous
 62
     3
370
    18
100
AcDbCircle
 10
-66.07647058823528
 20
118.0024154589372
 30
0.0
 40
1.0
100
AcDbArc
 50
180.0
 51
270.0
  0
ENDBLK
  5
D7
330
D5
100
AcDbEntity
  8
0
100
AcDbBlockEnd
  0
BLOCK
  5
D9
330
D8
100
AcDbEntity
  8
0
100
AcDbBlockBegin
  2
DA_DIMGROUP_0
 70
     0
 10
0.0
 20
0.0
 30
0.0
  3
DA_DIMGROUP_0
  1

  0
LINE
  5
174
330
D8
100
AcDbEntity
  8
0
  6
Continuous
 62
     2
370
    13
100
AcDbLine
 10
-137.5327419124961
 20
26.93446288827015
 30
0.0
 11
-128.5167148413263
 21
48.57292785907774
 31
0.0
  0
LINE
  5
175
330
D8
100
AcDbEntity
  8
0
  6
Continuous
 62
     2
370
    13
100
AcDbLine
 10
-107.7281276527212
 20
26.9344628882702
 30
0.0
 11
-116.7458193979933
 21
48.57692307692307
 31
0.0
  0
ARC
  5
176
330
D8
100
AcDbEntity
  8
0
  6
Continuous
 62
     2
370
    13
100
AcDbCircle
 10
-122.6304347826087
 20
62.69999999999998
 30
0.0
 40
37.7459985377073
100
AcDbArc
 50
247.3801350519596
 51
292.6198649480405
  0
INSERT
  5
17D
330
D8
100
AcDbEntity
  8
0
 62
     2
100
AcDbBlockReference
  2
_Open30
 10
-137.1481265278807
 20
27.85753981134708
 30
0.0
 41
3.000002807615286
 42
2.999989368223643
 50
160.2780012108965
  0
INSERT
  5
17E
330
D8
100
AcDbEntity
  8
0
 62
     2
100
AcDbBlockReference
  2
_Open30
 10
-108.1127430373366
 20
27.85753981134712
 30
0.0
 41
3.000002807615286
 42
2.999989368223643
 50
19.72199878910364
  0
MTEXT
  5
180
330
D8
100
AcDbEntity
  8
0
 62
     4
100
AcDbMText
 10
-122.6304347826087
 20
25.95400146229268
 30
0.0
 40
4.5
 41
0.0
 46
0.0
 71
     8
 72
     1
  1
\T1.00;\W0.6250;45°
  7
dcStyle0
 73
     1
 44
1.0
  0
ENDBLK
  5
DA
330
D8
100
AcDbEntity
  8
0
100
AcDbBlockEnd
  0
BLOCK
  5
DC
330
DB
100
AcDbEntity
  8
0
100
AcDbBlockBegin
  2
*D14
 70
     1
 10
0.0
 20
0.0
 30
0.0
  3
*D14
  1

  0
LINE
  5
181
330
DB
100
AcDbEntity
  8
0
  6
Continuous
 62
     2
370
    13
100
AcDbLine
 10
-128.1320994567109
 20
34.12905232598323
 30
0.0
 11
-117.1304347826087
 21
34.12905232598323
 31
0.0
  0
INSERT
  5
182
330
DB
100
AcDbEntity
  8
0
 62
     2
100
AcDbBlockReference
  2
_Open30
 10
-128.1320994567109
 20
34.12905232598323
 30
0.0
 41
3.000002807615286
 42
2.999989368223643
 50
180.0
  0
INSERT
  5
183
330
DB
100
AcDbEntity
  8
0
 62
     2
100
AcDbBlockReference
  2
_Open30
 10
-117.1304347826087
 20
34.12905232598323
 30
0.0
 41
3.000002807615286
 42
2.999989368223643
 50
360.0
  0
LINE
  5
184
330
DB
100
AcDbEntity
  8
0
  6
Continuous
 62
     2
370
    13
100
AcDbLine
 10
-128.1320994567109
 20
48.49600478215466
 30
0.0
 11
-128.1320994567109
 21
33.12905232598323
 31
0.0
  0
LINE
  5
185
330
DB
100
AcDbEntity
  8
0
  6
Continuous
 62
     2
370
    13
100
AcDbLine
 10
-117.1304347826087
 20
48.49999999999999
 30
0.0
 11
-117.1304347826087
 21
33.12905232598323
 31
0.0
  0
MTEXT
  5
186
330
DB
100
AcDbEntity
  8
0
 62
     4
100
AcDbMText
 10
-122.6312671196598
 20
35.12905232598323
 30
0.0
 40
4.5
 41
0.0
 46
0.0
 71
     8
 72
     1
  1
\T1.00;\W0.5000;11
  7
dcStyle0
 73
     1
 44
1.0
  0
ENDBLK
  5
DD
330
DB
100
AcDbEntity
  8
0
100
AcDbBlockEnd
  0
BLOCK
  5
DF
330
DE
100
AcDbEntity
  8
0
100
AcDbBlockBegin
  2
*D15
 70
     1
 10
0.0
 20
0.0
 30
0.0
  3
*D15
  1

  0
LINE
  5
187
330
DE
100
AcDbEntity
  8
0
  6
Continuous
 62
     2
370
    13
100
AcDbLine
 10
-125.6304347826087
 20
70.86389714522703
 30
0.0
 11
-119.6304347826087
 21
70.86389714522703
 31
0.0
  0
INSERT
  5
188
330
DE
100
AcDbEntity
  8
0
 62
     2
100
AcDbBlockReference
  2
_Open30
 10
-125.6304347826087
 20
70.86389714522703
 30
0.0
 41
3.000002807615286
 42
2.999989368223643
 50
180.0
  0
INSERT
  5
189
330
DE
100
AcDbEntity
  8
0
 62
     2
100
AcDbBlockReference
  2
_Open30
 10
-119.6304347826087
 20
70.86389714522703
 30
0.0
 41
3.000002807615286
 42
2.999989368223643
 50
360.0
  0
LINE
  5
18A
330
DE
100
AcDbEntity
  8
0
  6
Continuous
 62
     2
370
    13
100
AcDbLine
 10
-125.6304347826087
 20
56.49999999999999
 30
0.0
 11
-125.6304347826087
 21
71.86389714522703
 31
0.0
  0
LINE
  5
18B
330
DE
100
AcDbEntity
  8
0
  6
Continuous
 62
     2
370
    13
100
AcDbLine
 10
-119.6304347826087
 20
56.49999999999999
 30
0.0
 11
-119.6304347826087
 21
71.86389714522703
 31
0.0
  0
MTEXT
  5
18C
330
DE
100
AcDbEntity
  8
0
 62
     4
100
AcDbMText
 10
-122.6304347826087
 20
71.86389714522703
 30
0.0
 40
4.5
 41
0.0
 46
0.0
 71
     8
 72
     1
  1
\T1.00;\W0.5000;6
  7
dcStyle0
 73
     1
 44
1.0
  0
ENDBLK
  5
E0
330
DE
100
AcDbEntity
  8
0
100
AcDbBlockEnd
  0
BLOCK
  5
E2
330
E1
100
AcDbEntity
  8
0
100
AcDbBlockBegin
  2
*D16
 70
     1
 10
0.0
 20
0.0
 30
0.0
  3
*D16
  1

  0
LINE
  5
18D
330
E1
100
AcDbEntity
  8
0
  6
Continuous
 62
     2
370
    13
100
AcDbLine
 10
-82.42244418331377
 20
-58.50000000000001
 30
0.0
 11
-82.42244418331377
 21
58.49999999999999
 31
0.0
  0
INSERT
  5
18E
330
E1
100
AcDbEntity
  8
0
 62
     2
100
AcDbBlockReference
  2
_Open30
 10
-82.42244418331377
 20
-58.50000000000001
 30
0.0
 41
3.000002807615286
 42
2.999989368223643
 50
270.0
  0
INSERT
  5
18F
330
E1
100
AcDbEntity
  8
0
 62
     2
100
AcDbBlockReference
  2
_Open30
 10
-82.42244418331377
 20
58.49999999999999
 30
0.0
 41
3.000002807615286
 42
2.999989368223643
 50
90.0
  0
LINE
  5
190
330
E1
100
AcDbEntity
  8
0
  6
Continuous
 62
     2
370
    13
100
AcDbLine
 10
-115.1304347826087
 20
-58.50000000000001
 30
0.0
 11
-81.42244418331377
 21
-58.50000000000001
 31
0.0
  0
LINE
  5
191
330
E1
100
AcDbEntity
  8
0
  6
Continuous
 62
     2
370
    13
100
AcDbLine
 10
-115.1304347826087
 20
58.49999999999999
 30
0.0
 11
-81.42244418331377
 21
58.49999999999999
 31
0.0
  0
MTEXT
  5
192
330
E1
100
AcDbEntity
  8
0
 62
     4
100
AcDbMText
 10
-83.42244418331377
 20
0.0000000000000018
 30
0.0
 40
4.5
 41
0.0
 46
0.0
 71
     8
 72
     1
  1
\T1.00;\W0.5952;φ117
  7
dcStyle0
 11
6.123233995736766E-17
 21
1.0
 31
0.0
 73
     1
 44
1.0
  0
ENDBLK
  5
E3
330
E1
100
AcDbEntity
  8
0
100
AcDbBlockEnd
  0
BLOCK
  5
E5
330
E4
100
AcDbEntity
  8
0
100
AcDbBlockBegin
  2
*D17
 70
     1
 10
0.0
 20
0.0
 30
0.0
  3
*D17
  1

  0
LINE
  5
193
330
E4
100
AcDbEntity
  8
0
  6
Continuous
 62
     2
370
    13
100
AcDbLine
 10
-89.92596944770861
 20
-55.50000000000001
 30
0.0
 11
-89.92596944770861
 21
55.49999999999999
 31
0.0
  0
INSERT
  5
194
330
E4
100
AcDbEntity
  8
0
 62
     2
100
AcDbBlockReference
  2
_Open30
 10
-89.92596944770861
 20
-55.50000000000001
 30
0.0
 41
3.000002807615286
 42
2.999989368223643
 50
270.0
  0
INSERT
  5
195
330
E4
100
AcDbEntity
  8
0
 62
     2
100
AcDbBlockReference
  2
_Open30
 10
-89.92596944770861
 20
55.49999999999999
 30
0.0
 41
3.000002807615286
 42
2.999989368223643
 50
90.0
  0
LINE
  5
196
330
E4
100
AcDbEntity
  8
0
  6
Continuous
 62
     2
370
    13
100
AcDbLine
 10
-119.2971014492754
 20
-55.50000000000001
 30
0.0
 11
-88.92596944770861
 21
-55.50000000000001
 31
0.0
  0
LINE
  5
197
330
E4
100
AcDbEntity
  8
0
  6
Continuous
 62
     2
370
    13
100
AcDbLine
 10
-119.2971014492754
 20
55.49999999999999
 30
0.0
 11
-88.92596944770861
 21
55.49999999999999
 31
0.0
  0
MTEXT
  5
198
330
E4
100
AcDbEntity
  8
0
 62
     4
100
AcDbMText
 10
-90.92596944770861
 20
0.0000000000000018
 30
0.0
 40
4.5
 41
0.0
 46
0.0
 71
     8
 72
     1
  1
\T1.00;\W0.5952;φ111
  7
dcStyle0
 11
6.123233995736766E-17
 21
1.0
 31
0.0
 73
     1
 44
1.0
  0
ENDBLK
  5
E6
330
E4
100
AcDbEntity
  8
0
100
AcDbBlockEnd
  0
BLOCK
  5
E8
330
E7
100
AcDbEntity
  8
0
100
AcDbBlockBegin
  2
*D18
 70
     1
 10
0.0
 20
0.0
 30
0.0
  3
*D18
  1

  0
LINE
  5
199
330
E7
100
AcDbEntity
  8
0
  6
Continuous
 62
     2
370
    13
100
AcDbLine
 10
-97.01263219741485
 20
-49.50000000000001
 30
0.0
 11
-97.01263219741485
 21
49.49999999999999
 31
0.0
  0
INSERT
  5
19A
330
E7
100
AcDbEntity
  8
0
 62
     2
100
AcDbBlockReference
  2
_Open30
 10
-97.01263219741485
 20
-49.50000000000001
 30
0.0
 41
3.000002807615286
 42
2.999989368223643
 50
270.0
  0
INSERT
  5
19B
330
E7
100
AcDbEntity
  8
0
 62
     2
100
AcDbBlockReference
  2
_Open30
 10
-97.01263219741485
 20
49.49999999999999
 30
0.0
 41
3.000002807615286
 42
2.999989368223643
 50
90.0
  0
LINE
  5
19C
330
E7
100
AcDbEntity
  8
0
  6
Continuous
 62
     2
370
    13
100
AcDbLine
 10
-114.6304347826087
 20
-49.50000000000001
 30
0.0
 11
-96.01263219741485
 21
-49.50000000000001
 31
0.0
  0
LINE
  5
19D
330
E7
100
AcDbEntity
  8
0
  6
Continuous
 62
     2
370
    13
100
AcDbLine
 10
-114.6304347826087
 20
49.49999999999999
 30
0.0
 11
-96.01263219741485
 21
49.49999999999999
 31
0.0
  0
MTEXT
  5
19E
330
E7
100
AcDbEntity
  8
0
 62
     4
100
AcDbMText
 10
-98.01263219741485
 20
0.0000000000000018
 30
0.0
 40
4.5
 41
0.0
 46
0.0
 71
     8
 72
     1
  1
\T1.00;\W0.6250;φ99
  7
dcStyle0
 11
6.123233995736766E-17
 21
1.0
 31
0.0
 73
     1
 44
1.0
  0
ENDBLK
  5
E9
330
E7
100
AcDbEntity
  8
0
100
AcDbBlockEnd
  0
BLOCK
  5
EB
330
EA
100
AcDbEntity
  8
0
100
AcDbBlockBegin
  2
*D19
 70
     1
 10
0.0
 20
0.0
 30
0.0
  3
*D19
  1

  0
LINE
  5
19F
330
EA
100
AcDbEntity
  8
0
  6
Continuous
 62
     2
370
    13
100
AcDbLine
 10
125.1304347826087
 20
-72.60723192019951
 30
0.0
 11
142.1304347826087
 21
-72.60723192019951
 31
0.0
  0
INSERT
  5
1A0
330
EA
100
AcDbEntity
  8
0
 62
     2
100
AcDbBlockReference
  2
_Open30
 10
125.1304347826087
 20
-72.60723192019951
 30
0.0
 41
3.000002807615286
 42
2.999989368223643
 50
180.0
  0
INSERT
  5
1A1
330
EA
100
AcDbEntity
  8
0
 62
     2
100
AcDbBlockReference
  2
_Open30
 10
142.1304347826087
 20
-72.60723192019951
 30
0.0
 41
3.000002807615286
 42
2.999989368223643
 50
360.0
  0
LINE
  5
1A2
330
EA
100
AcDbEntity
  8
0
  6
Continuous
 62
     2
370
    13
100
AcDbLine
 10
125.1304347826087
 20
-57.50000000000001
 30
0.0
 11
125.1304347826087
 21
-76.41022443890276
 31
0.0
  0
LINE
  5
1A3
330
EA
100
AcDbEntity
  8
0
  6
Continuous
 62
     2
370
    13
100
AcDbLine
 10
142.1304347826087
 20
-57.50000000000001
 30
0.0
 11
142.1304347826087
 21
-76.41022443890276
 31
0.0
  0
MTEXT
  5
1A4
330
EA
100
AcDbEntity
  8
0
 62
     4
100
AcDbMText
 10
133.6304347826087
 20
-71.60723192019951
 30
0.0
 40
4.5
 41
0.0
 46
0.0
 71
     8
 72
     1
  1
\T1.00;\W0.5000;17
  7
dcStyle0
 73
     1
 44
1.0
  0
ENDBLK
  5
EC
330
EA
100
AcDbEntity
  8
0
100
AcDbBlockEnd
  0
BLOCK
  5
EE
330
ED
100
AcDbEntity
  8
0
100
AcDbBlockBegin
  2
DC_GROUP_COM-1709 HCJ3-50S304A_13
 70
     0
 10
0.0
 20
0.0
 30
0.0
  3
DC_GROUP_COM-1709 HCJ3-50S304A_13
  1

  0
LINE
  5
1A5
330
ED
100
AcDbEntity
  8
ZUWAKU
  6
Continuous
 62
     4
370
    18
100
AcDbLine
 10
100.0
 20
-88.506168
 30
0.0
 11
100.0
 21
-138.5
 31
0.0
  0
LINE
  5
1A6
330
ED
100
AcDbEntity
  8
ZUWAKU
  6
Continuous
 62
     4
370
    18
100
AcDbLine
 10
200.0
 20
-106.506168
 30
0.0
 11
100.0
 21
-106.506168
 31
0.0
  0
LINE
  5
1A7
330
ED
100
AcDbEntity
  8
ZUWAKU
  6
Continuous
 62
     4
370
    18
100
AcDbLine
 10
200.0
 20
-88.506168
 30
0.0
 11
100.0
 21
-88.506168
 31
0.0
  0
LINE
  5
1A8
330
ED
100
AcDbEntity
  8
ZUWAKU
  6
Continuous
 62
     7
370
    18
100
AcDbLine
 10
108.0
 20
-106.506168
 30
0.0
 11
108.0
 21
-138.5
 31
0.0
  0
LINE
  5
1A9
330
ED
100
AcDbEntity
  8
ZUWAKU
  6
Continuous
 62
     7
370
    18
100
AcDbLine
 10
200.0
 20
-129.5
 30
0.0
 11
100.0
 21
-129.5
 31
0.0
  0
LINE
  5
1AA
330
ED
100
AcDbEntity
  8
ZUWAKU
  6
Continuous
 62
     7
370
    18
100
AcDbLine
 10
200.0
 20
-115.5
 30
0.0
 11
100.0
 21
-115.5
 31
0.0
  0
LINE
  5
1AB
330
ED
100
AcDbEntity
  8
ZUWAKU
  6
Continuous
 62
     7
370
    18
100
AcDbLine
 10
200.0
 20
-100.506168
 30
0.0
 11
145.0
 21
-100.506168
 31
0.0
  0
LINE
  5
1AC
330
ED
100
AcDbEntity
  8
ZUWAKU
  6
Continuous
 62
     7
370
    18
100
AcDbLine
 10
200.0
 20
-94.506168
 30
0.0
 11
100.0
 21
-94.506168
 31
0.0
  0
LINE
  5
1AD
330
ED
100
AcDbEntity
  8
ZUWAKU
  6
Continuous
 62
     7
370
    18
100
AcDbLine
 10
115.0
 20
-88.506168
 30
0.0
 11
115.0
 21
-106.506168
 31
0.0
  0
LINE
  5
1AE
330
ED
100
AcDbEntity
  8
ZUWAKU
  6
Continuous
 62
     7
370
    18
100
AcDbLine
 10
130.0
 20
-88.506168
 30
0.0
 11
130.0
 21
-106.506168
 31
0.0
  0
LINE
  5
1AF
330
ED
100
AcDbEntity
  8
ZUWAKU
  6
Continuous
 62
     7
370
    18
100
AcDbLine
 10
145.0
 20
-88.506168
 30
0.0
 11
145.0
 21
-106.506168
 31
0.0
  0
LINE
  5
1B0
330
ED
100
AcDbEntity
  8
ZUWAKU
  6
Continuous
 62
     7
370
    18
100
AcDbLine
 10
165.0
 20
-88.506168
 30
0.0
 11
165.0
 21
-106.506168
 31
0.0
  0
TEXT
  5
1B1
330
ED
100
AcDbEntity
  8
ZUWAKU
 62
     3
100
AcDbText
 10
104.5
 20
-93.50616500000001
 30
0.0
 40
4.0
  1
承認
 41
1.145454545454546
  7
dcStyle0
 72
     5
 11
111.7
 21
-93.50616500000001
 31
0.0
100
AcDbText
  0
TEXT
  5
1B2
330
ED
100
AcDbEntity
  8
ZUWAKU
 62
     3
100
AcDbText
 10
119.5
 20
-93.50616500000001
 30
0.0
 40
4.0
  1
検図
 41
1.145454545454546
  7
dcStyle0
 72
     5
 11
126.7
 21
-93.50616500000001
 31
0.0
100
AcDbText
  0
TEXT
  5
1B3
330
ED
100
AcDbEntity
  8
ZUWAKU
 62
     3
100
AcDbText
 10
134.5
 20
-93.50616500000001
 30
0.0
 40
4.0
  1
作成
 41
1.145454545454544
  7
dcStyle0
 72
     5
 11
141.7
 21
-93.50616500000001
 31
0.0
100
AcDbText
  0
TEXT
  5
1B4
330
ED
100
AcDbEntity
  8
ZUWAKU
 62
     3
100
AcDbText
 10
149.0
 20
-93.50616500000001
 30
0.0
 40
4.0
  1
作成日付
 41
1.095652173913044
  7
dcStyle0
 72
     5
 11
163.4
 21
-93.50616500000001
 31
0.0
100
AcDbText
  0
TEXT
  5
1B5
330
ED
100
AcDbEntity
  8
ZUWAKU
 62
     3
100
AcDbText
 10
149.0
 20
-99.506168
 30
0.0
 40
4.0
  1
更新日付
 41
1.095652173913044
  7
dcStyle0
 72
     5
 11
163.4
 21
-99.506168
 31
0.0
100
AcDbText
  0
TEXT
  5
1B6
330
ED
100
AcDbEntity
  8
ZUWAKU
 62
     3
100
AcDbText
 10
152.0
 20
-105.506168
 30
0.0
 40
4.0
  1
尺度
 41
1.145454545454544
  7
dcStyle0
 72
     5
 11
159.2
 21
-105.506168
 31
0.0
100
AcDbText
  0
TEXT
  5
1B7
330
ED
100
AcDbEntity
  8
ZUWAKU
 62
     3
100
AcDbText
 10
100.2073339323979
 20
-113.0
 30
0.0
 40
4.0
  1
名称
 41
1.145454545454546
  7
dcStyle0
 72
     5
 11
107.4073339323979
 21
-113.0
 31
0.0
100
AcDbText
  0
TEXT
  5
1B8
330
ED
100
AcDbEntity
  8
ZUWAKU
 62
     3
100
AcDbText
 10
100.2073339323979
 20
-125.0
 30
0.0
 40
4.0
  1
材質
 41
1.145454545454546
  7
dcStyle0
 72
     5
 11
107.4073339323979
 21
-125.0
 31
0.0
100
AcDbText
  0
TEXT
  5
1B9
330
ED
100
AcDbEntity
  8
ZUWAKU
 62
     3
100
AcDbText
 10
100.2073339323979
 20
-136.0
 30
0.0
 40
4.0
  1
図番
 41
1.145454545454546
  7
dcStyle0
 72
     5
 11
107.4073339323979
 21
-136.0
 31
0.0
100
AcDbText
  0
ENDBLK
  5
EF
330
ED
100
AcDbEntity
  8
0
100
AcDbBlockEnd
  0
BLOCK
  5
F1
330
F0
100
AcDbEntity
  8
0
100
AcDbBlockBegin
  2
DC_GROUP_COM-1709 HCJ3-50S304A_14
 70
     0
 10
0.0
 20
0.0
 30
0.0
  3
DC_GROUP_COM-1709 HCJ3-50S304A_14
  1

  0
CIRCLE
  5
1BA
330
F0
100
AcDbEntity
  8
ZUWAKU
  6
Continuous
 62
     2
370
    13
100
AcDbCircle
 10
120.8208420959007
 20
132.0007204150656
 30
0.0
 40
1.0
  0
LINE
  5
1BB
330
F0
100
AcDbEntity
  8
ZUWAKU
  6
Continuous
 62
     2
370
    13
100
AcDbLine
 10
120.8208420959007
 20
130.0007204150656
 30
0.0
 11
119.0887912883318
 21
133.0007204150656
 31
0.0
  0
LINE
  5
1BC
330
F0
100
AcDbEntity
  8
ZUWAKU
  6
Continuous
 62
     2
370
    13
100
AcDbLine
 10
120.8208420959007
 20
130.0007204150656
 30
0.0
 11
124.862293980228
 21
137.0007204150656
 31
0.0
  0
ENDBLK
  5
F2
330
F0
100
AcDbEntity
  8
0
100
AcDbBlockEnd
  0
BLOCK
  5
F4
330
F3
100
AcDbEntity
  8
0
100
AcDbBlockBegin
  2
DC_GROUP_COM-1709 HCJ3-50S304A_15
 70
     0
 10
0.0
 20
0.0
 30
0.0
  3
DC_GROUP_COM-1709 HCJ3-50S304A_15
  1

  0
LINE
  5
1BD
330
F3
100
AcDbEntity
  8
ZUWAKU
  6
Continuous
 62
     2
370
    13
100
AcDbLine
 10
139.0943447877969
 20
130.0007204150656
 30
0.0
 11
137.362293980228
 21
133.0007204150656
 31
0.0
  0
LINE
  5
1BE
330
F3
100
AcDbEntity
  8
ZUWAKU
  6
Continuous
 62
     2
370
    13
100
AcDbLine
 10
139.0943447877969
 20
130.0007204150656
 30
0.0
 11
143.1357966721243
 21
137.0007204150656
 31
0.0
  0
LINE
  5
1BF
330
F3
100
AcDbEntity
  8
ZUWAKU
  6
Continuous
 62
     2
370
    13
100
AcDbLine
 10
143.1357966721243
 20
137.0007204150656
 30
0.0
 11
152.1357966721243
 21
137.0007204150656
 31
0.0
  0
LINE
  5
1C0
330
F3
100
AcDbEntity
  8
ZUWAKU
  6
Continuous
 62
     2
370
    13
100
AcDbLine
 10
137.362293980228
 20
133.0007204150656
 30
0.0
 11
140.8263955953658
 21
133.0007204150656
 31
0.0
  0
TEXT
  5
1C1
330
F3
100
AcDbEntity
  8
ZUWAKU
 62
     7
100
AcDbText
 10
143.1835495326201
 20
132.5007204150656
 30
0.0
 40
3.5
  1
Ra
 41
0.5833333333333334
  7
dcStyle0
 72
     5
 11
146.6835495326201
 21
132.5007204150656
 31
0.0
100
AcDbText
  0
TEXT
  5
1C2
330
F3
100
AcDbEntity
  8
ZUWAKU
 62
     7
100
AcDbText
 10
146.6835495326201
 20
132.5007204150656
 30
0.0
 40
3.5
  1
25
 41
0.5675675675675677
  7
dcStyle0
 72
     5
 11
150.1835495326201
 21
132.5007204150656
 31
0.0
100
AcDbText
  0
ENDBLK
  5
F5
330
F3
100
AcDbEntity
  8
0
100
AcDbBlockEnd
  0
BLOCK
  5
F7
330
F6
100
AcDbEntity
  8
0
100
AcDbBlockBegin
  2
DC_GROUP_COM-1709 HCJ3-50S304A_16
 70
     0
 10
0.0
 20
0.0
 30
0.0
  3
DC_GROUP_COM-1709 HCJ3-50S304A_16
  1

  0
LINE
  5
1C3
330
F6
100
AcDbEntity
  8
ZUWAKU
  6
Continuous
 62
     2
370
    13
100
AcDbLine
 10
160.8678474796932
 20
130.0007204150656
 30
0.0
 11
159.1357966721243
 21
133.0007204150656
 31
0.0
  0
LINE
  5
1C4
330
F6
100
AcDbEntity
  8
ZUWAKU
  6
Continuous
 62
     2
370
    13
100
AcDbLine
 10
160.8678474796932
 20
130.0007204150656
 30
0.0
 11
164.9092993640205
 21
137.0007204150656
 31
0.0
  0
LINE
  5
1C5
330
F6
100
AcDbEntity
  8
ZUWAKU
  6
Continuous
 62
     2
370
    13
100
AcDbLine
 10
164.9092993640205
 20
137.0007204150656
 30
0.0
 11
172.1592993640205
 21
137.0007204150656
 31
0.0
  0
LINE
  5
1C6
330
F6
100
AcDbEntity
  8
ZUWAKU
  6
Continuous
 62
     2
370
    13
100
AcDbLine
 10
159.1357966721243
 20
133.0007204150656
 30
0.0
 11
162.5998982872621
 21
133.0007204150656
 31
0.0
  0
TEXT
  5
1C7
330
F6
100
AcDbEntity
  8
ZUWAKU
 62
     7
100
AcDbText
 10
163.8488335544831
 20
132.5007204150656
 30
0.0
 40
3.5
  1
Ra6.3
 41
0.603448275862069
  7
dcStyle0
 72
     5
 11
172.5988335544831
 21
132.5007204150656
 31
0.0
100
AcDbText
  0
ENDBLK
  5
F8
330
F6
100
AcDbEntity
  8
0
100
AcDbBlockEnd
  0
BLOCK
  5
FA
330
F9
100
AcDbEntity
  8
0
100
AcDbBlockBegin
  2
DC_GROUP_COM-1709 HCJ3-50S304A_17
 70
     0
 10
0.0
 20
0.0
 30
0.0
  3
DC_GROUP_COM-1709 HCJ3-50S304A_17
  1

  0
LINE
  5
1C8
330
F9
100
AcDbEntity
  8
ZUWAKU
  6
Continuous
 62
     2
370
    13
100
AcDbLine
 10
180.8913501715894
 20
130.0007204150656
 30
0.0
 11
179.1592993640205
 21
133.0007204150656
 31
0.0
  0
LINE
  5
1C9
330
F9
100
AcDbEntity
  8
ZUWAKU
  6
Continuous
 62
     2
370
    13
100
AcDbLine
 10
180.8913501715894
 20
130.0007204150656
 30
0.0
 11
184.9328020559168
 21
137.0007204150656
 31
0.0
  0
LINE
  5
1CA
330
F9
100
AcDbEntity
  8
ZUWAKU
  6
Continuous
 62
     2
370
    13
100
AcDbLine
 10
184.9328020559168
 20
137.0007204150656
 30
0.0
 11
192.1828020559168
 21
137.0007204150656
 31
0.0
  0
LINE
  5
1CB
330
F9
100
AcDbEntity
  8
ZUWAKU
  6
Continuous
 62
     2
370
    13
100
AcDbLine
 10
179.1592993640205
 20
133.0007204150656
 30
0.0
 11
182.6234009791583
 21
133.0007204150656
 31
0.0
  0
TEXT
  5
1CC
330
F9
100
AcDbEntity
  8
ZUWAKU
 62
     7
100
AcDbText
 10
183.8723362463793
 20
132.5007204150656
 30
0.0
 40
3.5
  1
Ra1.6
 41
0.603448275862069
  7
dcStyle0
 72
     5
 11
192.6223362463793
 21
132.5007204150656
 31
0.0
100
AcDbText
  0
ENDBLK
  5
FB
330
F9
100
AcDbEntity
  8
0
100
AcDbBlockEnd
  0
BLOCK
  5
FD
330
FC
100
AcDbEntity
  8
0
100
AcDbBlockBegin
  2
*D25
 70
     1
 10
0.0
 20
0.0
 30
0.0
  3
*D25
  1

  0
LINE
  5
1CD
330
FC
100
AcDbEntity
  8
0
  6
Continuous
 62
     2
370
    13
100
AcDbLine
 10
-134.7145809082255
 20
49.49999999999999
 30
0.0
 11
-134.7145809082255
 21
58.49999999999999
 31
0.0
  0
INSERT
  5
1CE
330
FC
100
AcDbEntity
  8
0
 62
     2
100
AcDbBlockReference
  2
_Open30
 10
-134.7145809082255
 20
49.49999999999999
 30
0.0
 41
3.000002807615286
 42
2.999989368223643
 50
270.0
  0
INSERT
  5
1CF
330
FC
100
AcDbEntity
  8
0
 62
     2
100
AcDbBlockReference
  2
_Open30
 10
-134.7145809082255
 20
58.49999999999999
 30
0.0
 41
3.000002807615286
 42
2.999989368223643
 50
90.0
  0
LINE
  5
1D0
330
FC
100
AcDbEntity
  8
0
  6
Continuous
 62
     2
370
    13
100
AcDbLine
 10
-130.6304347826087
 20
49.49999999999999
 30
0.0
 11
-135.7145809082255
 21
49.49999999999999
 31
0.0
  0
LINE
  5
1D1
330
FC
100
AcDbEntity
  8
0
  6
Continuous
 62
     2
370
    13
100
AcDbLine
 10
-130.1304347826087
 20
58.49999999999999
 30
0.0
 11
-135.7145809082255
 21
58.49999999999999
 31
0.0
  0
MTEXT
  5
1D2
330
FC
100
AcDbEntity
  8
0
 62
     4
100
AcDbMText
 10
-135.7145809082255
 20
53.99999999999999
 30
0.0
 40
4.5
 41
0.0
 46
0.0
 71
     8
 72
     1
  1
\T1.00;\W0.5000;9
  7
dcStyle0
 11
6.123233995736766E-17
 21
1.0
 31
0.0
 73
     1
 44
1.0
  0
ENDBLK
  5
FE
330
FC
100
AcDbEntity
  8
0
100
AcDbBlockEnd
  0
BLOCK
  5
100
330
FF
100
AcDbEntity
  8
0
100
AcDbBlockBegin
  2
DC_GROUP_COM-1709 HCJ3-50S304A_18
 70
     0
 10
0.0
 20
0.0
 30
0.0
  3
DC_GROUP_COM-1709 HCJ3-50S304A_18
  1

  0
LINE
  5
1D3
330
FF
100
AcDbEntity
  8
0
  6
CENTER
 62
     2
370
    13
100
AcDbLine
 10
0.0000000000000091
 20
81.9
 30
0.0
 11
-0.0000000000000091
 21
-81.9
 31
0.0
  0
LINE
  5
1D4
330
FF
100
AcDbEntity
  8
0
  6
CENTER
 62
     2
370
    13
100
AcDbLine
 10
-81.89999999999999
 20
0.00000000000001
 30
0.0
 11
0.0000000000000041
 21
0.0
 31
0.0
  0
ARC
  5
1D5
330
FF
100
AcDbEntity
  8
0
  6
Continuous
 62
     3
370
    13
100
AcDbCircle
 10
0.0000000000000041
 20
0.0
 30
0.0
 40
58.5
100
AcDbArc
 50
19.0288716752556
 51
150.2512161007663
  0
ARC
  5
1D6
330
FF
100
AcDbEntity
  8
0
  6
Continuous
 62
     3
370
    13
100
AcDbCircle
 10
0.0000000000000041
 20
0.0
 30
0.0
 40
58.5
100
AcDbArc
 50
209.7487838992337
 51
341.3091037713471
  0
ENDBLK
  5
101
330
FF
100
AcDbEntity
  8
0
100
AcDbBlockEnd
  0
BLOCK
  5
103
330
102
100
AcDbEntity
  8
0
100
AcDbBlockBegin
  2
DC_GROUP_COM-1709 HCJ3-50S304A_19
 70
     0
 10
0.0
 20
0.0
 30
0.0
  3
DC_GROUP_COM-1709 HCJ3-50S304A_19
  1

  0
CIRCLE
  5
1D7
330
102
100
AcDbEntity
  8
Layer0016
  6
Continuous
 62
     3
370
    13
100
AcDbCircle
 10
-61.49999999999996
 20
0.0
 30
0.0
 40
3.0
  0
LINE
  5
1D8
330
102
100
AcDbEntity
  8
Layer0016
  6
CENTER
 62
     2
370
    13
100
AcDbLine
 10
-61.49999999999996
 20
4.200000000000003
 30
0.0
 11
-61.49999999999996
 21
-4.199999999999989
 31
0.0
  0
LINE
  5
1D9
330
102
100
AcDbEntity
  8
Layer0016
  6
CENTER
 62
     2
370
    13
100
AcDbLine
 10
-65.69999999999995
 20
0.0
 30
0.0
 11
-57.29999999999998
 21
0.0
 31
0.0
  0
ENDBLK
  5
104
330
102
100
AcDbEntity
  8
0
100
AcDbBlockEnd
  0
BLOCK
  5
106
330
105
100
AcDbEntity
  8
0
100
AcDbBlockBegin
  2
DC_GROUP_COM-1709 HCJ3-50S304A_20
 70
     0
 10
0.0
 20
0.0
 30
0.0
  3
DC_GROUP_COM-1709 HCJ3-50S304A_20
  1

  0
INSERT
  5
1DA
330
105
100
AcDbEntity
  8
0
  6
Continuous
100
AcDbBlockReference
  2
DC_GROUP_COM-1709 HCJ3-50S304A_21
 10
0.0
 20
0.0
 30
0.0
  0
INSERT
  5
1DB
330
105
100
AcDbEntity
  8
0
  6
Continuous
100
AcDbBlockReference
  2
DC_GROUP_COM-1709 HCJ3-50S304A_22
 10
0.0
 20
0.0
 30
0.0
  0
ENDBLK
  5
107
330
105
100
AcDbEntity
  8
0
100
AcDbBlockEnd
  0
BLOCK
  5
109
330
108
100
AcDbEntity
  8
0
100
AcDbBlockBegin
  2
DC_GROUP_COM-1709 HCJ3-50S304A_21
 70
     0
 10
0.0
 20
0.0
 30
0.0
  3
DC_GROUP_COM-1709 HCJ3-50S304A_21
  1

  0
CIRCLE
  5
1DC
330
108
100
AcDbEntity
  8
0
  6
DASHED2
 62
     4
370
    18
100
AcDbCircle
 10
68.56675753482347
 20
-12.71094650923914
 30
0.0
 40
5.500000000000001
  0
LINE
  5
1DD
330
108
100
AcDbEntity
  8
0
  6
CENTER
 62
     2
370
    13
100
AcDbLine
 10
67.78897975704568
 20
-5.050328927843032
 30
0.0
 11
69.34453531260125
 21
-20.37156409063524
 31
0.0
  0
LINE
  5
1DE
330
108
100
AcDbEntity
  8
0
  6
CENTER
 62
     2
370
    13
100
AcDbLine
 10
60.90613995342734
 20
-13.48872428701692
 30
0.0
 11
76.22737511621956
 21
-11.93316873146136
 31
0.0
  0
ENDBLK
  5
10A
330
108
100
AcDbEntity
  8
0
100
AcDbBlockEnd
  0
BLOCK
  5
10C
330
10B
100
AcDbEntity
  8
0
100
AcDbBlockBegin
  2
DC_GROUP_COM-1709 HCJ3-50S304A_22
 70
     0
 10
0.0
 20
0.0
 30
0.0
  3
DC_GROUP_COM-1709 HCJ3-50S304A_22
  1

  0
LINE
  5
1DF
330
10B
100
AcDbEntity
  8
0
  6
Continuous
 62
     4
370
    18
100
AcDbLine
 10
63.92863007551233
 20
-6.628334104097386
 30
0.0
 11
64.34914479620976
 21
-4.072787270310771
 31
0.0
  0
LINE
  5
1E0
330
10B
100
AcDbEntity
  8
0
  6
Continuous
 62
     4
370
    18
100
AcDbLine
 10
63.67610482298709
 20
-4.141120603644106
 30
0.0
 11
71.6351880244376
 21
-3.333039795563296
 31
0.0
  0
LINE
  5
1E1
330
10B
100
AcDbEntity
  8
0
  6
Continuous
 62
     4
370
    18
100
AcDbLine
 10
71.88771327696284
 20
-5.820253296016575
 30
0.0
 11
70.96214805121494
 21
-3.40137312889663
 31
0.0
  0
ARC
  5
1E2
330
10B
100
AcDbEntity
  8
0
  6
Continuous
 62
     4
370
    18
100
AcDbCircle
 10
72.28566743703537
 20
-5.779849255612534
 30
0.0
 40
0.4000000000000058
100
AcDbArc
 50
185.7973395408423
 51
203.676036136683
  0
LINE
  5
1E3
330
10B
100
AcDbEntity
  8
0
  6
Continuous
 62
     4
370
    18
100
AcDbLine
 10
64.34914479620976
 20
-4.072787270310771
 30
0.0
 11
63.28329932054761
 21
6.425114345286421
 31
0.0
  0
LINE
  5
1E4
330
10B
100
AcDbEntity
  8
0
  6
Continuous
 62
     4
370
    18
100
AcDbLine
 10
70.96214805121494
 20
-3.40137312889663
 30
0.0
 11
69.89630257555278
 21
7.096528486700563
 31
0.0
  0
LINE
  5
1E5
330
10B
100
AcDbEntity
  8
0
  6
Continuous
 62
     4
370
    18
100
AcDbLine
 10
63.91450389158754
 20
-6.489200156041269
 30
0.0
 11
62.61025934732494
 21
6.356781011953087
 31
0.0
  0
LINE
  5
1E6
330
10B
100
AcDbEntity
  8
0
  6
Continuous
 62
     4
370
    18
100
AcDbLine
 10
72.03938405588461
 20
-7.314114227492159
 30
0.0
 11
70.56934254877542
 21
7.164861820033894
 31
0.0
  0
LINE
  5
1E7
330
10B
100
AcDbEntity
  8
0
  6
DASHED2
 62
     4
370
    13
100
AcDbLine
 10
59.65792300480525
 20
35.43542061556848
 30
0.0
 11
67.61700620625575
 21
36.24350142364929
 31
0.0
  0
LINE
  5
1E8
330
10B
100
AcDbEntity
  8
0
  6
DASHED2
 62
     4
370
    13
100
AcDbLine
 10
60.7305733638107
 20
36.75049521699819
 30
0.0
 11
66.30193160482605
 21
37.31615178265476
 31
0.0
  0
LINE
  5
1E9
330
10B
100
AcDbEntity
  8
0
  6
DASHED2
 62
     4
370
    13
100
AcDbLine
 10
59.65792300480525
 20
35.43542061556848
 30
0.0
 11
60.7305733638107
 21
36.75049521699819
 31
0.0
  0
LINE
  5
1EA
330
10B
100
AcDbEntity
  8
0
  6
DASHED2
 62
     4
370
    13
100
AcDbLine
 10
67.61700620625575
 20
36.24350142364929
 30
0.0
 11
66.30193160482605
 21
37.31615178265476
 31
0.0
  0
ARC
  5
1EB
330
10B
100
AcDbEntity
  8
0
  6
DASHED2
 62
     4
370
    13
100
AcDbCircle
 10
63.5306759154398
 20
-6.668738144501428
 30
0.0
 40
0.3999999999999961
100
AcDbArc
 50
347.9186429450016
 51
5.797339540842314
  0
LINE
  5
1EC
330
10B
100
AcDbEntity
  8
0
  6
DASHED2
 62
     4
370
    13
100
AcDbLine
 10
62.61025934732494
 20
6.356781011953087
 30
0.0
 11
59.65792300480525
 21
35.43542061556848
 31
0.0
  0
LINE
  5
1ED
330
10B
100
AcDbEntity
  8
0
  6
DASHED2
 62
     4
370
    13
100
AcDbLine
 10
63.28329932054761
 20
6.425114345286421
 30
0.0
 11
60.26262964469457
 21
36.17679392212447
 31
0.0
  0
LINE
  5
1EE
330
10B
100
AcDbEntity
  8
0
  6
DASHED2
 62
     4
370
    13
100
AcDbLine
 10
69.89630257555278
 20
7.096528486700563
 30
0.0
 11
66.87563289969977
 21
36.84820806353862
 31
0.0
  0
LINE
  5
1EF
330
10B
100
AcDbEntity
  8
0
  6
DASHED2
 62
     4
370
    13
100
AcDbLine
 10
70.56934254877542
 20
7.164861820033894
 30
0.0
 11
67.61700620625575
 21
36.24350142364929
 31
0.0
  0
LINE
  5
1F0
330
10B
100
AcDbEntity
  8
0
  6
DASHED2
 62
     4
370
    13
100
AcDbLine
 10
64.20591116464009
 20
-9.359376886561046
 30
0.0
 11
63.91450389158754
 21
-6.489200156041269
 31
0.0
  0
LINE
  5
1F1
330
10B
100
AcDbEntity
  8
0
  6
DASHED2
 62
     4
370
    13
100
AcDbLine
 10
72.16499436609058
 20
-8.551296078480233
 30
0.0
 11
72.03938405588461
 21
-7.314114227492159
 31
0.0
  0
LINE
  5
1F2
330
10B
100
AcDbEntity
  8
0
  6
CENTER
 62
     2
370
    13
100
AcDbLine
 10
68.95059591866185
 20
-16.49151102992813
 30
0.0
 11
63.38493935300525
 21
38.32667452006216
 31
0.0
  0
ENDBLK
  5
10D
330
10B
100
AcDbEntity
  8
0
100
AcDbBlockEnd
  0
BLOCK
  5
10F
330
10E
100
AcDbEntity
  8
0
100
AcDbBlockBegin
  2
DC_GROUP_COM-1709 HCJ3-50S304A_23
 70
     0
 10
0.0
 20
0.0
 30
0.0
  3
DC_GROUP_COM-1709 HCJ3-50S304A_23
  1

  0
LINE
  5
1F3
330
10E
100
AcDbEntity
  8
Layer0016
  6
Continuous
 62
     3
370
    18
100
AcDbLine
 10
71.1487758374766
 20
18.78281159888631
 30
0.0
 11
65.42818478643402
 21
18.20200351807858
 31
0.0
  0
LINE
  5
1F4
330
10E
100
AcDbEntity
  8
Layer0016
  6
Continuous
 62
     3
370
    18
100
AcDbLine
 10
61.28677064502237
 20
58.99230492551261
 30
0.0
 11
74.22028084737947
 21
60.30543623864313
 31
0.0
  0
LINE
  5
1F5
330
10E
100
AcDbEntity
  8
Layer0016
  6
Continuous
 62
     3
370
    18
100
AcDbLine
 10
70.76912948248003
 20
32.42208729549388
 30
0.0
 11
72.04265113664786
 21
19.87870710007767
 31
0.0
  0
LINE
  5
1F6
330
10E
100
AcDbEntity
  8
Layer0016
  6
Continuous
 62
     3
370
    18
100
AcDbLine
 10
76.41207184976223
 20
58.51768564030058
 30
0.0
 11
77.64152365534271
 21
46.40836548946761
 31
0.0
  0
LINE
  5
1F7
330
10E
100
AcDbEntity
  8
Layer0016
  6
Continuous
 62
     3
370
    18
100
AcDbLine
 10
77.20158313570852
 20
44.9422147162892
 30
0.0
 11
72.96883208065084
 21
39.75284116138593
 31
0.0
  0
ARC
  5
1F8
330
10E
100
AcDbEntity
  8
Layer0016
  6
Continuous
 62
     3
370
    18
100
AcDbCircle
 10
74.42230104939961
 20
58.3156654382805
 30
0.0
 40
2.0
100
AcDbArc
 50
5.797339540838768
 51
95.79733954083878
  0
ARC
  5
1F9
330
10E
100
AcDbEntity
  8
Layer0016
  6
Continuous
 62
     3
370
    18
100
AcDbCircle
 10
75.65175285498003
 20
46.20634528744753
 30
0.0
 40
2.0
100
AcDbArc
 50
320.7973395408387
 51
5.797339540838752
  0
ARC
  5
1FA
330
10E
100
AcDbEntity
  8
Layer0016
  6
Continuous
 62
     3
370
    18
100
AcDbCircle
 10
80.71798348429324
 20
33.43218830559428
 30
0.0
 40
10.0
100
AcDbArc
 50
140.7973395408388
 51
185.7973395408387
  0
ARC
  5
1FB
330
10E
100
AcDbEntity
  8
Layer0016
  6
Continuous
 62
     3
370
    18
100
AcDbCircle
 10
71.04776573646654
 20
19.77769699906763
 30
0.0
 40
1.0
100
AcDbArc
 50
275.7973395408387
 51
5.797339540838752
  0
LINE
  5
1FC
330
10E
100
AcDbEntity
  8
Layer0016
  6
Continuous
 62
     3
370
    18
100
AcDbLine
 10
59.70759373539143
 20
17.62119543727085
 30
0.0
 11
65.42818478643402
 21
18.20200351807858
 31
0.0
  0
LINE
  5
1FD
330
10E
100
AcDbEntity
  8
Layer0016
  6
Continuous
 62
     3
370
    18
100
AcDbLine
 10
61.28677064502237
 20
58.99230492551261
 30
0.0
 11
48.35326044266525
 21
57.67917361238209
 31
0.0
  0
LINE
  5
1FE
330
10E
100
AcDbEntity
  8
Layer0016
  6
Continuous
 62
     3
370
    18
100
AcDbLine
 10
57.33817658003223
 20
31.05845093185833
 30
0.0
 11
58.61169823420008
 21
18.51507073644213
 31
0.0
  0
LINE
  5
1FF
330
10E
100
AcDbEntity
  8
Layer0016
  6
Continuous
 62
     3
370
    18
100
AcDbLine
 10
46.56550984432265
 20
55.48738260999939
 30
0.0
 11
47.79496164990313
 21
43.37806245916642
 31
0.0
  0
LINE
  5
200
330
10E
100
AcDbEntity
  8
Layer0016
  6
Continuous
 62
     3
370
    18
100
AcDbLine
 10
48.52060187910744
 20
42.03025238045801
 30
0.0
 11
53.70997543401072
 21
37.79750132540033
 31
0.0
  0
ARC
  5
201
330
10E
100
AcDbEntity
  8
Layer0016
  6
Continuous
 62
     3
370
    18
100
AcDbCircle
 10
48.55528064468532
 20
55.68940281201945
 30
0.0
 40
2.0
100
AcDbArc
 50
95.79733954083878
 51
185.7973395408387
  0
ARC
  5
202
330
10E
100
AcDbEntity
  8
Layer0016
  6
Continuous
 62
     3
370
    18
100
AcDbCircle
 10
49.78473245026574
 20
43.58008266118649
 30
0.0
 40
2.0
100
AcDbArc
 50
185.7973395408387
 51
230.7973395408388
  0
ARC
  5
203
330
10E
100
AcDbEntity
  8
Layer0016
  6
Continuous
 62
     3
370
    18
100
AcDbCircle
 10
47.38932257821906
 20
30.04834992175794
 30
0.0
 40
10.0
100
AcDbArc
 50
5.797339540838768
 51
50.79733954083877
  0
ARC
  5
204
330
10E
100
AcDbEntity
  8
Layer0016
  6
Continuous
 62
     3
370
    18
100
AcDbCircle
 10
59.60658363438136
 20
18.61608083745217
 30
0.0
 40
1.0
100
AcDbArc
 50
185.7973395408387
 51
275.7973395408387
  0
INSERT
  5
205
330
10E
100
AcDbEntity
  8
Layer0016
  6
Continuous
100
AcDbBlockReference
  2
DC_GROUP_COM-1709 HCJ3-50S304A_24
 10
0.0
 20
0.0
 30
0.0
  0
ENDBLK
  5
110
330
10E
100
AcDbEntity
  8
0
100
AcDbBlockEnd
  0
BLOCK
  5
112
330
111
100
AcDbEntity
  8
0
100
AcDbBlockBegin
  2
DC_GROUP_COM-1709 HCJ3-50S304A_24
 70
     0
 10
0.0
 20
0.0
 30
0.0
  3
DC_GROUP_COM-1709 HCJ3-50S304A_24
  1

  0
CIRCLE
  5
206
330
111
100
AcDbEntity
  8
Layer0016
  6
Continuous
 62
     3
370
    13
100
AcDbCircle
 10
62.24636660461776
 20
49.5408936237901
 30
0.0
 40
7.5
  0
LINE
  5
207
330
111
100
AcDbEntity
  8
Layer0016
  6
CENTER
 62
     2
370
    13
100
AcDbLine
 10
61.18576054401229
 20
59.98719032569393
 30
0.0
 11
65.42818478643402
 21
18.20200351807858
 31
0.0
  0
LINE
  5
208
330
111
100
AcDbEntity
  8
Layer0016
  6
CENTER
 62
     2
370
    13
100
AcDbLine
 10
51.80006990271392
 20
48.48028756318469
 30
0.0
 11
72.69266330652161
 21
50.60149968439552
 31
0.0
  0
ENDBLK
  5
113
330
111
100
AcDbEntity
  8
0
100
AcDbBlockEnd
  0
BLOCK
  5
115
330
114
100
AcDbEntity
  8
0
100
AcDbBlockBegin
  2
*D33
 70
     1
 10
0.0
 20
0.0
 30
0.0
  3
*D33
  1

  0
LINE
  5
209
330
114
100
AcDbEntity
  8
0
  6
Continuous
 62
     2
370
    13
100
AcDbLine
 10
90.61608824385223
 20
20.75931581957708
 30
0.0
 11
86.47467410244055
 21
61.54961722701113
 31
0.0
  0
INSERT
  5
20A
330
114
100
AcDbEntity
  8
0
 62
     2
100
AcDbBlockReference
  2
_Open30
 10
90.61608824385223
 20
20.75931581957708
 30
0.0
 41
3.000002807615286
 42
2.999989368223643
 50
275.7973395408388
  0
INSERT
  5
20B
330
114
100
AcDbEntity
  8
0
 62
     2
100
AcDbBlockReference
  2
_Open30
 10
86.47467410244055
 20
61.54961722701113
 30
0.0
 41
3.000002807615286
 42
2.999989368223643
 50
95.79733954083883
  0
LINE
  5
20C
330
114
100
AcDbEntity
  8
0
  6
Continuous
 62
     2
370
    13
100
AcDbLine
 10
76.34295355973262
 20
19.31017325912732
 30
0.0
 11
91.61097364403354
 21
20.86032592058712
 31
0.0
  0
LINE
  5
20D
330
114
100
AcDbEntity
  8
0
  6
Continuous
 62
     2
370
    13
100
AcDbLine
 10
75.21516624756082
 20
60.40644633965319
 30
0.0
 11
87.46955950262189
 21
61.65062732802117
 31
0.0
  0
MTEXT
  5
20E
330
114
100
AcDbEntity
  8
0
 62
     4
100
AcDbMText
 10
89.54026657332768
 20
41.25547662430415
 30
0.0
 40
4.5
 41
0.0
 46
0.0
 71
     8
 72
     1
  1
\T1.00;\W0.5000;41
  7
dcStyle0
 11
0.1010101010100407
 21
-0.9948854001813181
 31
0.0
 73
     1
 44
1.0
  0
ENDBLK
  5
116
330
114
100
AcDbEntity
  8
0
100
AcDbBlockEnd
  0
BLOCK
  5
118
330
117
100
AcDbEntity
  8
0
100
AcDbBlockBegin
  2
*D34
 70
     1
 10
0.0
 20
0.0
 30
0.0
  3
*D34
  1

  0
LINE
  5
20F
330
117
100
AcDbEntity
  8
0
  6
Continuous
 62
     2
370
    13
100
AcDbLine
 10
45.109060897969
 20
69.83248055909127
 30
0.0
 11
74.95562290340858
 21
72.86278358939249
 31
0.0
  0
INSERT
  5
210
330
117
100
AcDbEntity
  8
0
 62
     2
100
AcDbBlockReference
  2
_Open30
 10
45.109060897969
 20
69.83248055909127
 30
0.0
 41
3.000002807615286
 42
2.999989368223643
 50
185.7973395408388
  0
INSERT
  5
211
330
117
100
AcDbEntity
  8
0
 62
     2
100
AcDbBlockReference
  2
_Open30
 10
74.95562290340858
 20
72.86278358939249
 30
0.0
 41
3.000002807615286
 42
2.999989368223643
 50
5.797339540838803
  0
LINE
  5
212
330
117
100
AcDbEntity
  8
0
  6
Continuous
 62
     2
370
    13
100
AcDbLine
 10
46.46449974331264
 20
56.48226801018072
 30
0.0
 11
45.008050796959
 21
70.8273659592726
 31
0.0
  0
LINE
  5
213
330
117
100
AcDbEntity
  8
0
  6
Continuous
 62
     2
370
    13
100
AcDbLine
 10
76.31106174875221
 20
59.5125710404819
 30
0.0
 11
74.8546128023985
 21
73.85766898957381
 31
0.0
  0
MTEXT
  5
214
330
117
100
AcDbEntity
  8
0
 62
     4
100
AcDbMText
 10
59.93133179967877
 20
72.34251747442322
 30
0.0
 40
4.5
 41
0.0
 46
0.0
 71
     8
 72
     1
  1
\T1.00;\W0.5000;30
  7
dcStyle0
 11
0.9948854001813181
 21
0.1010101010100404
 31
0.0
 73
     1
 44
1.0
  0
ENDBLK
  5
119
330
117
100
AcDbEntity
  8
0
100
AcDbBlockEnd
  0
BLOCK
  5
11B
330
11A
100
AcDbEntity
  8
0
100
AcDbBlockBegin
  2
DC_GROUP_COM-1709 HCJ3-50S304A_25
 70
     0
 10
0.0
 20
0.0
 30
0.0
  3
DC_GROUP_COM-1709 HCJ3-50S304A_25
  1

  0
INSERT
  5
215
330
11A
100
AcDbEntity
  8
0
  6
Continuous
100
AcDbBlockReference
  2
DC_GROUP_COM-1709 HCJ3-50S304A_26
 10
0.0
 20
0.0
 30
0.0
  0
INSERT
  5
216
330
11A
100
AcDbEntity
  8
0
  6
Continuous
100
AcDbBlockReference
  2
DC_GROUP_COM-1709 HCJ3-50S304A_27
 10
0.0
 20
0.0
 30
0.0
  0
ENDBLK
  5
11C
330
11A
100
AcDbEntity
  8
0
100
AcDbBlockEnd
  0
BLOCK
  5
11E
330
11D
100
AcDbEntity
  8
0
100
AcDbBlockBegin
  2
DC_GROUP_COM-1709 HCJ3-50S304A_26
 70
     0
 10
0.0
 20
0.0
 30
0.0
  3
DC_GROUP_COM-1709 HCJ3-50S304A_26
  1

  0
LINE
  5
217
330
11D
100
AcDbEntity
  8
0
  6
CENTER
 62
     2
370
    13
100
AcDbLine
 10
133.6304347826086
 20
-5.010946509239135
 30
0.0
 11
133.6304347826086
 21
-20.41094650923914
 31
0.0
  0
LINE
  5
218
330
11D
100
AcDbEntity
  8
0
  6
CENTER
 62
     2
370
    13
100
AcDbLine
 10
125.9304347826086
 20
-12.71094650923914
 30
0.0
 11
141.3304347826086
 21
-12.71094650923914
 31
0.0
  0
ARC
  5
219
330
11D
100
AcDbEntity
  8
0
  6
DASHED2
 62
     4
370
    18
100
AcDbCircle
 10
133.6304347826086
 20
-12.71094650923914
 30
0.0
 40
5.500000000000001
100
AcDbArc
 50
222.5774324701806
 51
317.4225675298202
  0
ARC
  5
21A
330
11D
100
AcDbEntity
  8
0
  6
DASHED2
 62
     4
370
    18
100
AcDbCircle
 10
133.6304347826086
 20
-12.71094650923914
 30
0.0
 40
5.500000000000001
100
AcDbArc
 50
42.41509937614079
 51
137.5849006238588
  0
ENDBLK
  5
11F
330
11D
100
AcDbEntity
  8
0
100
AcDbBlockEnd
  0
BLOCK
  5
121
330
120
100
AcDbEntity
  8
0
100
AcDbBlockBegin
  2
DC_GROUP_COM-1709 HCJ3-50S304A_27
 70
     0
 10
0.0
 20
0.0
 30
0.0
  3
DC_GROUP_COM-1709 HCJ3-50S304A_27
  1

  0
LINE
  5
21B
330
120
100
AcDbEntity
  8
0
  6
DASHED2
 62
     4
370
    13
100
AcDbLine
 10
129.6304347826087
 20
-8.936029291603761
 30
0.0
 11
129.6304347826086
 21
36.08905349076086
 31
0.0
  0
LINE
  5
21C
330
120
100
AcDbEntity
  8
0
  6
DASHED2
 62
     4
370
    13
100
AcDbLine
 10
129.6304347826086
 20
-6.190946509239131
 30
0.0
 11
130.3069347826087
 21
-3.690946509239135
 31
0.0
  0
LINE
  5
21D
330
120
100
AcDbEntity
  8
0
  6
DASHED2
 62
     4
370
    13
100
AcDbLine
 10
130.3069347826087
 20
-3.690946509239135
 30
0.0
 11
130.3069347826086
 21
36.76555349076087
 31
0.0
  0
LINE
  5
21E
330
120
100
AcDbEntity
  8
0
  6
DASHED2
 62
     4
370
    13
100
AcDbLine
 10
129.6304347826086
 20
36.08905349076086
 30
0.0
 11
137.6304347826086
 21
36.08905349076086
 31
0.0
  0
LINE
  5
21F
330
120
100
AcDbEntity
  8
0
  6
DASHED2
 62
     4
370
    13
100
AcDbLine
 10
129.6304347826086
 20
-3.690946509239135
 30
0.0
 11
137.6304347826086
 21
-3.690946509239135
 31
0.0
  0
LINE
  5
220
330
120
100
AcDbEntity
  8
0
  6
DASHED2
 62
     4
370
    13
100
AcDbLine
 10
137.6304347826086
 20
-8.936029291603758
 30
0.0
 11
137.6304347826086
 21
36.08905349076086
 31
0.0
  0
LINE
  5
221
330
120
100
AcDbEntity
  8
0
  6
DASHED2
 62
     4
370
    13
100
AcDbLine
 10
137.6304347826086
 20
-6.190946509239135
 30
0.0
 11
136.9539347826086
 21
-3.690946509239135
 31
0.0
  0
LINE
  5
222
330
120
100
AcDbEntity
  8
0
  6
DASHED2
 62
     4
370
    13
100
AcDbLine
 10
136.9539347826086
 20
-3.690946509239135
 30
0.0
 11
136.9539347826086
 21
36.76555349076087
 31
0.0
  0
LINE
  5
223
330
120
100
AcDbEntity
  8
0
  6
DASHED2
 62
     4
370
    13
100
AcDbLine
 10
130.8304347826086
 20
37.28905349076088
 30
0.0
 11
136.4304347826086
 21
37.28905349076088
 31
0.0
  0
LINE
  5
224
330
120
100
AcDbEntity
  8
0
  6
DASHED2
 62
     4
370
    13
100
AcDbLine
 10
129.6304347826086
 20
36.08905349076086
 30
0.0
 11
130.8304347826086
 21
37.28905349076088
 31
0.0
  0
LINE
  5
225
330
120
100
AcDbEntity
  8
0
  6
DASHED2
 62
     4
370
    13
100
AcDbLine
 10
137.6304347826086
 20
36.08905349076086
 30
0.0
 11
136.4304347826086
 21
37.28905349076088
 31
0.0
  0
ARC
  5
226
330
120
100
AcDbEntity
  8
0
  6
DASHED2
 62
     4
370
    13
100
AcDbCircle
 10
129.2304347826086
 20
-6.190946509239135
 30
0.0
 40
0.3999999999999961
100
AcDbArc
 50
342.1213034041593
 51
0.0
  0
ARC
  5
227
330
120
100
AcDbEntity
  8
0
  6
DASHED2
 62
     4
370
    13
100
AcDbCircle
 10
138.0304347826087
 20
-6.190946509239135
 30
0.0
 40
0.4000000000000058
100
AcDbArc
 50
180.0
 51
197.8786965958407
  0
LINE
  5
228
330
120
100
AcDbEntity
  8
0
  6
CENTER
 62
     2
370
    13
100
AcDbLine
 10
133.6304347826087
 20
-16.51094650923914
 30
0.0
 11
133.6304347826086
 21
38.58905349076086
 31
0.0
  0
ENDBLK
  5
122
330
120
100
AcDbEntity
  8
0
100
AcDbBlockEnd
  0
BLOCK
  5
124
330
123
100
AcDbEntity
  8
0
100
AcDbBlockBegin
  2
*D38
 70
     1
 10
0.0
 20
0.0
 30
0.0
  3
*D38
  1

  0
LINE
  5
229
330
123
100
AcDbEntity
  8
0
  6
Continuous
 62
     2
370
    13
100
AcDbLine
 10
-67.07647058823524
 20
-72.33169639478011
 30
0.0
 11
78.90159831203145
 21
-72.33169639478011
 31
0.0
  0
INSERT
  5
22A
330
123
100
AcDbEntity
  8
0
 62
     2
100
AcDbBlockReference
  2
_Open30
 10
-67.07647058823524
 20
-72.33169639478011
 30
0.0
 41
3.000002807615286
 42
2.999989368223643
 50
180.0
  0
INSERT
  5
22B
330
123
100
AcDbEntity
  8
0
 62
     2
100
AcDbBlockReference
  2
_Open30
 10
78.90159831203145
 20
-72.33169639478011
 30
0.0
 41
3.000002807615286
 42
2.999989368223643
 50
360.0
  0
LINE
  5
22C
330
123
100
AcDbEntity
  8
0
  6
Continuous
 62
     2
370
    13
100
AcDbLine
 10
-67.07647058823524
 20
-1.0
 30
0.0
 11
-67.07647058823524
 21
-73.33169639478011
 31
0.0
  0
LINE
  5
22D
330
123
100
AcDbEntity
  8
0
  6
Continuous
 62
     2
370
    13
100
AcDbLine
 10
78.90159831203145
 20
-10.81805362864545
 30
0.0
 11
78.90159831203145
 21
-73.33169639478011
 31
0.0
  0
MTEXT
  5
22E
330
123
100
AcDbEntity
  8
0
 62
     4
100
AcDbMText
 10
5.912563861898104
 20
-71.33169639478011
 30
0.0
 40
4.5
 41
0.0
 46
0.0
 71
     8
 72
     1
  1
\T1.00;\W0.5000;146
  7
dcStyle0
 73
     1
 44
1.0
  0
ENDBLK
  5
125
330
123
100
AcDbEntity
  8
0
100
AcDbBlockEnd
  0
BLOCK
  5
127
330
126
100
AcDbEntity
  8
0
100
AcDbBlockBegin
  2
*D39
 70
     1
 10
0.0
 20
0.0
 30
0.0
  3
*D39
  1

  0
LINE
  5
22F
330
126
100
AcDbEntity
  8
0
  6
Continuous
 62
     2
370
    13
100
AcDbLine
 10
110.1097256857855
 20
-58.5
 30
0.0
 11
110.1097256857855
 21
58.51768564030058
 31
0.0
  0
INSERT
  5
230
330
126
100
AcDbEntity
  8
0
 62
     2
100
AcDbBlockReference
  2
_Open30
 10
110.1097256857855
 20
-58.5
 30
0.0
 41
3.000002807615286
 42
2.999989368223643
 50
270.0
  0
INSERT
  5
231
330
126
100
AcDbEntity
  8
0
 62
     2
100
AcDbBlockReference
  2
_Open30
 10
110.1097256857855
 20
58.51768564030058
 30
0.0
 41
3.000002807615286
 42
2.999989368223643
 50
90.0
  0
LINE
  5
232
330
126
100
AcDbEntity
  8
0
  6
Continuous
 62
     2
370
    13
100
AcDbLine
 10
0.9999999999999976
 20
-58.5
 30
0.0
 11
111.1097256857855
 21
-58.5
 31
0.0
  0
LINE
  5
233
330
126
100
AcDbEntity
  8
0
  6
Continuous
 62
     2
370
    13
100
AcDbLine
 10
77.41207184976223
 20
58.51768564030058
 30
0.0
 11
111.1097256857855
 21
58.51768564030058
 31
0.0
  0
MTEXT
  5
234
330
126
100
AcDbEntity
  8
0
 62
     4
100
AcDbMText
 10
109.1097256857855
 20
0.0088428201502939
 30
0.0
 40
4.5
 41
0.0
 46
0.0
 71
     8
 72
     1
  1
\T1.00;\W0.5000;117
  7
dcStyle0
 11
6.123233995736766E-17
 21
1.0
 31
0.0
 73
     1
 44
1.0
  0
ENDBLK
  5
128
330
126
100
AcDbEntity
  8
0
100
AcDbBlockEnd
  0
BLOCK
  5
12A
330
129
100
AcDbEntity
  8
0
100
AcDbBlockBegin
  2
DC_GROUP_COM-1709 HCJ3-50S304A_28
 70
     0
 10
0.0
 20
0.0
 30
0.0
  3
DC_GROUP_COM-1709 HCJ3-50S304A_28
  1

  0
LINE
  5
235
330
129
100
AcDbEntity
  8
0
  6
Continuous
 62
     2
370
    13
100
AcDbLine
 10
35.24823713435865
 20
46.68845444989608
 30
0.0
 11
-35.24823713435865
 21
-46.68845444989607
 31
0.0
  0
LINE
  5
236
330
129
100
AcDbEntity
  8
0
  6
Continuous
 62
     2
370
    13
100
AcDbLine
 10
-49.59799871531658
 20
-65.69559478958594
 30
0.0
 11
-35.24823713435865
 21
-46.68845444989607
 31
0.0
  0
INSERT
  5
237
330
129
100
AcDbEntity
  8
0
 62
     2
100
AcDbBlockReference
  2
_Open30
 10
-35.24823713435865
 20
-46.68845444989607
 30
0.0
 41
3.000002807615286
 42
2.999989368223643
 50
52.94840387389171
  0
LINE
  5
238
330
129
100
AcDbEntity
  8
0
  6
Continuous
 62
     2
370
    13
100
AcDbLine
 10
38.26090697490211
 20
50.67892064219489
 30
0.0
 11
35.24823713435865
 21
46.68845444989608
 31
0.0
  0
INSERT
  5
239
330
129
100
AcDbEntity
  8
0
 62
     2
100
AcDbBlockReference
  2
_Open30
 10
35.24823713435865
 20
46.68845444989608
 30
0.0
 41
3.000002807615286
 42
2.999989368223643
 50
232.9484038738918
  0
TEXT
  5
23A
330
129
100
AcDbEntity
  8
0
 62
     4
100
AcDbText
 10
-49.79355798566764
 20
-64.29496758301751
 30
0.0
 40
4.5
  1
φ117
 50
52.94840387389173
 41
0.7000000000000003
  7
dcStyle0
 72
     5
 11
-43.01505084444482
 21
-55.31641865034518
 31
0.0
100
AcDbText
  0
ENDBLK
  5
12B
330
129
100
AcDbEntity
  8
0
100
AcDbBlockEnd
  0
BLOCK
  5
178
330
177
100
AcDbEntity
  8
0
100
AcDbBlockBegin
  2
_Open30
 70
     0
 10
0.0
 20
0.0
 30
0.0
  3
_Open30
  1

  0
LINE
  5
17A
330
177
100
AcDbEntity
  8
0
  6
ByBlock
 62
     0
370
    -2
100
AcDbLine
 10
-1.0
 20
0.267949
 30
0.0
 11
0.0
 21
0.0
 31
0.0
  0
LINE
  5
17B
330
177
100
AcDbEntity
  8
0
  6
ByBlock
 62
     0
370
    -2
100
AcDbLine
 10
0.0
 20
0.0
 30
0.0
 11
-1.0
 21
-0.267949
 31
0.0
  0
LINE
  5
17C
330
177
100
AcDbEntity
  8
0
  6
ByBlock
 62
     0
370
    -2
100
AcDbLine
 10
0.0
 20
0.0
 30
0.0
 11
-1.0
 21
0.0
 31
0.0
  0
ENDBLK
  5
179
330
177
100
AcDbEntity
  8
0
100
AcDbBlockEnd
  0
ENDSEC
  0
SECTION
  2
ENTITIES
  0
POINT
  5
23B
330
1F
100
AcDbEntity
  8
ZUWAKU
  6
Continuous
 62
     7
100
AcDbPoint
 10
-250.0
 20
-279.0
 30
0.0
  0
LINE
  5
23C
330
1F
100
AcDbEntity
  8
0
  6
CENTER
 62
     2
370
    13
100
AcDbLine
 10
-122.6304347826087
 20
66.38647342995169
 30
0.0
 11
-122.6304347826087
 21
-69.26086956521739
 31
0.0
  0
LINE
  5
23D
330
1F
100
AcDbEntity
  8
0
  6
CENTER
 62
     2
370
    13
100
AcDbLine
 10
-110.4387187699208
 20
-0.0000000000000027
 30
0.0
 11
-134.7584541062802
 21
0.0000000000000027
 31
0.0
  0
LINE
  5
23E
330
1F
100
AcDbEntity
  8
0
  6
CENTER
 62
     2
370
    13
100
AcDbLine
 10
133.6304347826087
 20
72.3112946706297
 30
0.0
 11
133.6304347826087
 21
-69.26086956521739
 31
0.0
  0
LINE
  5
23F
330
1F
100
AcDbEntity
  8
0
  6
CENTER
 62
     2
370
    13
100
AcDbLine
 10
121.4387187699208
 20
-0.0000000000000272
 30
0.0
 11
145.7584541062801
 21
-0.0000000000000272
 31
0.0
  0
LINE
  5
240
330
1F
100
AcDbEntity
  8
0
  6
CENTER
 62
     2
370
    13
100
AcDbLine
 10
145.1304347826087
 20
0.0000000000000069
 30
0.0
 11
122.1304347826087
 21
0.0000000000000069
 31
0.0
  0
LINE
  5
241
330
1F
100
AcDbEntity
  8
0
  6
CENTER
 62
     2
370
    13
100
AcDbLine
 10
-67.07647058823528
 20
117.0024154589372
 30
0.0
 11
79.90105066703529
 21
117.0024154589372
 31
0.0
  0
LINE
  5
242
330
1F
100
AcDbEntity
  8
0
  6
CENTER
 62
     2
370
    13
100
AcDbLine
 10
0.0000000000000041
 20
104.8106994462493
 30
0.0
 11
0.0000000000000056
 21
129.1304347826087
 31
0.0
  0
LINE
  5
243
330
1F
100
AcDbEntity
  8
0
  6
CENTER
 62
     2
370
    13
100
AcDbLine
 10
-61.50000000000001
 20
128.5024154589372
 30
0.0
 11
-61.50000000000001
 21
105.5024154589372
 31
0.0
  0
LINE
  5
244
330
1F
100
AcDbEntity
  8
0
  6
CENTER
 62
     2
370
    13
100
AcDbLine
 10
-75.89787157438559
 20
0.0
 30
0.0
 11
96.03740648379053
 21
0.0
 31
0.0
  0
LINE
  5
245
330
1F
100
AcDbEntity
  8
0
  6
CENTER
 62
     2
370
    13
100
AcDbLine
 10
0.0000000000000041
 20
95.17331670822942
 30
0.0
 11
0.0000000000000041
 21
-69.74438902743144
 31
0.0
  0
LINE
  5
246
330
1F
100
AcDbEntity
  8
0
  6
CENTER
 62
     2
370
    13
100
AcDbLine
 10
65.47695823222976
 20
17.7216160256053
 30
0.0
 11
69.27484661218226
 21
-19.68517461165133
 31
0.0
  0
LINE
  5
247
330
1F
100
AcDbEntity
  8
Layer0016
  6
Continuous
 62
     3
370
    13
100
AcDbLine
 10
-117.5150501672241
 20
50.42307692307692
 30
0.0
 11
-119.3740245261984
 21
54.88461538461538
 31
0.0
  0
LINE
  5
248
330
1F
100
AcDbEntity
  8
Layer0016
  6
Continuous
 62
     3
370
    13
100
AcDbLine
 10
-115.6304347826087
 20
49.49999999999999
 30
0.0
 11
-116.1304347826087
 21
49.49999999999999
 31
0.0
  0
LINE
  5
249
330
1F
100
AcDbEntity
  8
Layer0016
  6
Continuous
 62
     3
370
    13
100
AcDbLine
 10
-120.2971014492754
 20
55.49999999999999
 30
0.0
 11
-122.6304347826087
 21
55.49999999999999
 31
0.0
  0
ARC
  5
24A
330
1F
100
AcDbEntity
  8
Layer0016
  6
Continuous
 62
     3
370
    13
100
AcDbCircle
 10
-120.2971014492754
 20
54.49999999999999
 30
0.0
 40
1.0
100
AcDbArc
 50
22.61986494804029
 51
89.99999999999999
  0
ARC
  5
24B
330
1F
100
AcDbEntity
  8
Layer0016
  6
Continuous
 62
     3
370
    13
100
AcDbCircle
 10
-116.1304347826087
 20
50.99999999999999
 30
0.0
 40
1.5
100
AcDbArc
 50
202.6198649480403
 51
270.0
  0
ARC
  5
24C
330
1F
100
AcDbEntity
  8
Layer0016
  6
Continuous
 62
     3
370
    13
100
AcDbCircle
 10
-115.6304347826087
 20
50.99999999999999
 30
0.0
 40
1.5
100
AcDbArc
 50
270.0
 51
0.0
  0
LINE
  5
24D
330
1F
100
AcDbEntity
  8
Layer0016
  6
Continuous
 62
     3
370
    13
100
AcDbLine
 10
-127.7458193979933
 20
50.42307692307692
 30
0.0
 11
-125.886845039019
 21
54.88461538461538
 31
0.0
  0
LINE
  5
24E
330
1F
100
AcDbEntity
  8
Layer0016
  6
Continuous
 62
     3
370
    13
100
AcDbLine
 10
-129.6304347826087
 20
49.49999999999999
 30
0.0
 11
-129.1304347826087
 21
49.49999999999999
 31
0.0
  0
LINE
  5
24F
330
1F
100
AcDbEntity
  8
Layer0016
  6
Continuous
 62
     3
370
    13
100
AcDbLine
 10
-124.963768115942
 20
55.49999999999999
 30
0.0
 11
-122.6304347826087
 21
55.49999999999999
 31
0.0
  0
ARC
  5
250
330
1F
100
AcDbEntity
  8
Layer0016
  6
Continuous
 62
     3
370
    13
100
AcDbCircle
 10
-124.963768115942
 20
54.49999999999999
 30
0.0
 40
1.0
100
AcDbArc
 50
89.99999999999999
 51
157.3801350519597
  0
ARC
  5
251
330
1F
100
AcDbEntity
  8
Layer0016
  6
Continuous
 62
     3
370
    13
100
AcDbCircle
 10
-129.1304347826087
 20
50.99999999999999
 30
0.0
 40
1.5
100
AcDbArc
 50
270.0
 51
337.3801350519597
  0
ARC
  5
252
330
1F
100
AcDbEntity
  8
Layer0016
  6
Continuous
 62
     3
370
    13
100
AcDbCircle
 10
-129.6304347826087
 20
50.99999999999999
 30
0.0
 40
1.5
100
AcDbArc
 50
180.0
 51
270.0
  0
LINE
  5
253
330
1F
100
AcDbEntity
  8
Layer0016
  6
Continuous
 62
     3
370
    13
100
AcDbLine
 10
-117.5150501672241
 20
-50.42307692307693
 30
0.0
 11
-119.3740245261985
 21
-54.88461538461539
 31
0.0
  0
LINE
  5
254
330
1F
100
AcDbEntity
  8
Layer0016
  6
Continuous
 62
     3
370
    13
100
AcDbLine
 10
-115.6304347826087
 20
-49.50000000000001
 30
0.0
 11
-116.1304347826087
 21
-49.50000000000001
 31
0.0
  0
LINE
  5
255
330
1F
100
AcDbEntity
  8
Layer0016
  6
Continuous
 62
     3
370
    13
100
AcDbLine
 10
-120.2971014492754
 20
-55.50000000000001
 30
0.0
 11
-122.6304347826087
 21
-55.50000000000001
 31
0.0
  0
ARC
  5
256
330
1F
100
AcDbEntity
  8
Layer0016
  6
Continuous
 62
     3
370
    13
100
AcDbCircle
 10
-120.2971014492754
 20
-54.50000000000001
 30
0.0
 40
1.0
100
AcDbArc
 50
270.0
 51
337.3801350519597
  0
ARC
  5
257
330
1F
100
AcDbEntity
  8
Layer0016
  6
Continuous
 62
     3
370
    13
100
AcDbCircle
 10
-116.1304347826087
 20
-51.00000000000001
 30
0.0
 40
1.5
100
AcDbArc
 50
90.0
 51
157.3801350519597
  0
ARC
  5
258
330
1F
100
AcDbEntity
  8
Layer0016
  6
Continuous
 62
     3
370
    13
100
AcDbCircle
 10
-115.6304347826087
 20
-51.00000000000001
 30
0.0
 40
1.5
100
AcDbArc
 50
0.0
 51
90.0
  0
LINE
  5
259
330
1F
100
AcDbEntity
  8
Layer0016
  6
Continuous
 62
     3
370
    13
100
AcDbLine
 10
-127.7458193979933
 20
-50.42307692307693
 30
0.0
 11
-125.886845039019
 21
-54.88461538461539
 31
0.0
  0
LINE
  5
25A
330
1F
100
AcDbEntity
  8
Layer0016
  6
Continuous
 62
     3
370
    13
100
AcDbLine
 10
-129.6304347826087
 20
-49.50000000000001
 30
0.0
 11
-129.1304347826087
 21
-49.50000000000001
 31
0.0
  0
LINE
  5
25B
330
1F
100
AcDbEntity
  8
Layer0016
  6
Continuous
 62
     3
370
    13
100
AcDbLine
 10
-124.963768115942
 20
-55.50000000000001
 30
0.0
 11
-122.6304347826087
 21
-55.50000000000001
 31
0.0
  0
ARC
  5
25C
330
1F
100
AcDbEntity
  8
Layer0016
  6
Continuous
 62
     3
370
    13
100
AcDbCircle
 10
-124.963768115942
 20
-54.50000000000001
 30
0.0
 40
1.0
100
AcDbArc
 50
202.6198649480403
 51
270.0
  0
ARC
  5
25D
330
1F
100
AcDbEntity
  8
Layer0016
  6
Continuous
 62
     3
370
    13
100
AcDbCircle
 10
-129.1304347826087
 20
-51.00000000000001
 30
0.0
 40
1.5
100
AcDbArc
 50
22.61986494804025
 51
89.99999999999999
  0
ARC
  5
25E
330
1F
100
AcDbEntity
  8
Layer0016
  6
Continuous
 62
     3
370
    13
100
AcDbCircle
 10
-129.6304347826087
 20
-51.00000000000001
 30
0.0
 40
1.5
100
AcDbArc
 50
89.99999999999999
 51
180.0
  0
TEXT
  5
25F
330
1F
100
AcDbEntity
  8
0
 62
     4
100
AcDbText
 10
-135.179347826087
 20
-90.57608695652176
 30
0.0
 40
4.5
  1
SEC　Ａ－Ａ
 41
1.112403100775194
  7
dcStyle0
 72
     5
 11
-104.429347826087
 21
-90.57608695652176
 31
0.0
100
AcDbText
  0
TEXT
  5
260
330
1F
100
AcDbEntity
  8
0
 62
     4
100
AcDbText
 10
-11.59011753521743
 20
86.13154436040433
 30
0.0
 40
4.5
  1
Ａ
 41
1.4
  7
dcStyle0
 72
     5
 11
-7.090117535217427
 21
86.13154436040433
 31
0.0
100
AcDbText
  0
TEXT
  5
261
330
1F
100
AcDbEntity
  8
0
 62
     4
100
AcDbText
 10
-11.59011753521744
 20
-83.70249551691337
 30
0.0
 40
4.5
  1
Ａ
 41
1.4
  7
dcStyle0
 72
     5
 11
-7.090117535217436
 21
-83.70249551691337
 31
0.0
100
AcDbText
  0
LINE
  5
262
330
1F
100
AcDbEntity
  8
Layer0016
  6
DASHED2
 62
     4
370
    13
100
AcDbLine
 10
135.963768115942
 20
39.49999999999998
 30
0.0
 11
133.6304347826087
 21
39.49999999999998
 31
0.0
  0
LINE
  5
263
330
1F
100
AcDbEntity
  8
Layer0016
  6
DASHED2
 62
     4
370
    13
100
AcDbLine
 10
130.6304347826087
 20
-55.24535599249993
 30
0.0
 11
130.6304347826087
 21
-18.20200351807859
 31
0.0
  0
LINE
  5
264
330
1F
100
AcDbEntity
  8
Layer0016
  6
DASHED2
 62
     4
370
    13
100
AcDbLine
 10
128.1304347826087
 20
-49.50000000000001
 30
0.0
 11
128.1304347826087
 21
-18.20200351807859
 31
0.0
  0
LINE
  5
265
330
1F
100
AcDbEntity
  8
Layer0016
  6
DASHED2
 62
     4
370
    13
100
AcDbLine
 10
128.515050167224
 20
-50.42307692307693
 30
0.0
 11
130.3740245261984
 21
-54.88461538461539
 31
0.0
  0
LINE
  5
266
330
1F
100
AcDbEntity
  8
Layer0016
  6
DASHED2
 62
     4
370
    13
100
AcDbLine
 10
126.6304347826087
 20
-49.50000000000001
 30
0.0
 11
127.1304347826087
 21
-49.50000000000001
 31
0.0
  0
LINE
  5
267
330
1F
100
AcDbEntity
  8
Layer0016
  6
DASHED2
 62
     4
370
    13
100
AcDbLine
 10
131.2971014492753
 20
-55.50000000000001
 30
0.0
 11
133.6304347826087
 21
-55.50000000000001
 31
0.0
  0
ARC
  5
268
330
1F
100
AcDbEntity
  8
Layer0016
  6
DASHED2
 62
     4
370
    13
100
AcDbCircle
 10
131.2971014492753
 20
-54.50000000000001
 30
0.0
 40
1.0
100
AcDbArc
 50
202.6198649480403
 51
270.0
  0
ARC
  5
269
330
1F
100
AcDbEntity
  8
Layer0016
  6
DASHED2
 62
     4
370
    13
100
AcDbCircle
 10
127.1304347826087
 20
-51.00000000000001
 30
0.0
 40
1.5
100
AcDbArc
 50
22.61986494804026
 51
90.0
  0
ARC
  5
26A
330
1F
100
AcDbEntity
  8
Layer0016
  6
DASHED2
 62
     4
370
    13
100
AcDbCircle
 10
126.6304347826087
 20
-51.00000000000001
 30
0.0
 40
1.5
100
AcDbArc
 50
90.0
 51
180.0
  0
LINE
  5
26B
330
1F
100
AcDbEntity
  8
Layer0016
  6
DASHED2
 62
     4
370
    13
100
AcDbLine
 10
138.7458193979933
 20
-50.42307692307693
 30
0.0
 11
136.8868450390189
 21
-54.88461538461539
 31
0.0
  0
LINE
  5
26C
330
1F
100
AcDbEntity
  8
Layer0016
  6
DASHED2
 62
     4
370
    13
100
AcDbLine
 10
140.6304347826087
 20
-49.50000000000001
 30
0.0
 11
140.1304347826087
 21
-49.50000000000001
 31
0.0
  0
LINE
  5
26D
330
1F
100
AcDbEntity
  8
Layer0016
  6
DASHED2
 62
     4
370
    13
100
AcDbLine
 10
135.963768115942
 20
-55.50000000000001
 30
0.0
 11
133.6304347826087
 21
-55.50000000000001
 31
0.0
  0
ARC
  5
26E
330
1F
100
AcDbEntity
  8
Layer0016
  6
DASHED2
 62
     4
370
    13
100
AcDbCircle
 10
135.963768115942
 20
-54.50000000000001
 30
0.0
 40
1.0
100
AcDbArc
 50
270.0
 51
337.3801350519597
  0
ARC
  5
26F
330
1F
100
AcDbEntity
  8
Layer0016
  6
DASHED2
 62
     4
370
    13
100
AcDbCircle
 10
140.1304347826087
 20
-51.00000000000001
 30
0.0
 40
1.5
100
AcDbArc
 50
90.00000000000001
 51
157.3801350519597
  0
ARC
  5
270
330
1F
100
AcDbEntity
  8
Layer0016
  6
DASHED2
 62
     4
370
    13
100
AcDbCircle
 10
140.6304347826087
 20
-51.00000000000001
 30
0.0
 40
1.5
100
AcDbArc
 50
0.0
 51
90.0
  0
LINE
  5
271
330
1F
100
AcDbEntity
  8
Layer0016
  6
DASHED2
 62
     4
370
    13
100
AcDbLine
 10
139.1304347826087
 20
-49.50000000000001
 30
0.0
 11
139.1304347826087
 21
-18.20200351807859
 31
0.0
  0
LINE
  5
272
330
1F
100
AcDbEntity
  8
Layer0016
  6
DASHED2
 62
     4
370
    13
100
AcDbLine
 10
136.6304347826087
 20
-55.24535599249993
 30
0.0
 11
136.6304347826087
 21
-18.20200351807859
 31
0.0
  0
LINE
  5
273
330
1F
100
AcDbEntity
  8
Layer0016
  6
DASHED2
 62
     4
370
    13
100
AcDbLine
 10
128.515050167224
 20
50.42307692307692
 30
0.0
 11
130.3740245261984
 21
54.88461538461538
 31
0.0
  0
LINE
  5
274
330
1F
100
AcDbEntity
  8
Layer0016
  6
DASHED2
 62
     4
370
    13
100
AcDbLine
 10
126.6304347826087
 20
49.49999999999999
 30
0.0
 11
127.1304347826087
 21
49.49999999999999
 31
0.0
  0
LINE
  5
275
330
1F
100
AcDbEntity
  8
Layer0016
  6
DASHED2
 62
     4
370
    13
100
AcDbLine
 10
131.2971014492753
 20
55.49999999999999
 30
0.0
 11
133.6304347826087
 21
55.49999999999999
 31
0.0
  0
ARC
  5
276
330
1F
100
AcDbEntity
  8
Layer0016
  6
DASHED2
 62
     4
370
    13
100
AcDbCircle
 10
131.2971014492753
 20
54.49999999999999
 30
0.0
 40
1.0
100
AcDbArc
 50
90.0
 51
157.3801350519597
  0
ARC
  5
277
330
1F
100
AcDbEntity
  8
Layer0016
  6
DASHED2
 62
     4
370
    13
100
AcDbCircle
 10
127.1304347826087
 20
50.99999999999999
 30
0.0
 40
1.5
100
AcDbArc
 50
270.0
 51
337.3801350519598
  0
ARC
  5
278
330
1F
100
AcDbEntity
  8
Layer0016
  6
DASHED2
 62
     4
370
    13
100
AcDbCircle
 10
126.6304347826087
 20
50.99999999999999
 30
0.0
 40
1.5
100
AcDbArc
 50
180.0
 51
270.0
  0
LINE
  5
279
330
1F
100
AcDbEntity
  8
Layer0016
  6
DASHED2
 62
     4
370
    13
100
AcDbLine
 10
138.7458193979933
 20
50.42307692307692
 30
0.0
 11
136.8868450390189
 21
54.88461538461538
 31
0.0
  0
LINE
  5
27A
330
1F
100
AcDbEntity
  8
Layer0016
  6
DASHED2
 62
     4
370
    13
100
AcDbLine
 10
140.6304347826087
 20
49.49999999999999
 30
0.0
 11
140.1304347826087
 21
49.49999999999999
 31
0.0
  0
LINE
  5
27B
330
1F
100
AcDbEntity
  8
Layer0016
  6
DASHED2
 62
     4
370
    13
100
AcDbLine
 10
135.963768115942
 20
55.49999999999999
 30
0.0
 11
133.6304347826087
 21
55.49999999999999
 31
0.0
  0
ARC
  5
27C
330
1F
100
AcDbEntity
  8
Layer0016
  6
DASHED2
 62
     4
370
    13
100
AcDbCircle
 10
135.963768115942
 20
54.49999999999999
 30
0.0
 40
1.0
100
AcDbArc
 50
22.6198649480403
 51
90.0
  0
ARC
  5
27D
330
1F
100
AcDbEntity
  8
Layer0016
  6
DASHED2
 62
     4
370
    13
100
AcDbCircle
 10
140.1304347826087
 20
50.99999999999999
 30
0.0
 40
1.5
100
AcDbArc
 50
202.6198649480403
 51
270.0
  0
ARC
  5
27E
330
1F
100
AcDbEntity
  8
Layer0016
  6
DASHED2
 62
     4
370
    13
100
AcDbCircle
 10
140.6304347826087
 20
50.99999999999999
 30
0.0
 40
1.5
100
AcDbArc
 50
270.0
 51
0.0
  0
LINE
  5
27F
330
1F
100
AcDbEntity
  8
Layer0016
  6
DASHED2
 62
     4
370
    13
100
AcDbLine
 10
-55.24535599249992
 20
114.0024154589372
 30
0.0
 11
0.0000000000000046
 21
114.0024154589372
 31
0.0
  0
LINE
  5
280
330
1F
100
AcDbEntity
  8
Layer0016
  6
DASHED2
 62
     4
370
    13
100
AcDbLine
 10
-49.49999999999999
 20
111.5024154589372
 30
0.0
 11
0.0000000000000045
 21
111.5024154589372
 31
0.0
  0
LINE
  5
281
330
1F
100
AcDbEntity
  8
Layer0016
  6
DASHED2
 62
     4
370
    13
100
AcDbLine
 10
-50.42307692307692
 20
111.8870308435526
 30
0.0
 11
-54.88461538461538
 21
113.7460052025269
 31
0.0
  0
LINE
  5
282
330
1F
100
AcDbEntity
  8
Layer0016
  6
DASHED2
 62
     4
370
    13
100
AcDbLine
 10
-49.49999999999999
 20
110.0024154589372
 30
0.0
 11
-49.49999999999999
 21
110.5024154589372
 31
0.0
  0
LINE
  5
283
330
1F
100
AcDbEntity
  8
Layer0016
  6
DASHED2
 62
     4
370
    13
100
AcDbLine
 10
-55.49999999999999
 20
114.6690821256039
 30
0.0
 11
-55.49999999999999
 21
117.0024154589372
 31
0.0
  0
ARC
  5
284
330
1F
100
AcDbEntity
  8
Layer0016
  6
DASHED2
 62
     4
370
    13
100
AcDbCircle
 10
-54.49999999999999
 20
114.6690821256039
 30
0.0
 40
1.0
100
AcDbArc
 50
180.0
 51
247.3801350519597
  0
ARC
  5
285
330
1F
100
AcDbEntity
  8
Layer0016
  6
DASHED2
 62
     4
370
    13
100
AcDbCircle
 10
-50.99999999999999
 20
110.5024154589372
 30
0.0
 40
1.5
100
AcDbArc
 50
0.0
 51
67.38013505195974
  0
ARC
  5
286
330
1F
100
AcDbEntity
  8
Layer0016
  6
DASHED2
 62
     4
370
    13
100
AcDbCircle
 10
-50.99999999999999
 20
110.0024154589372
 30
0.0
 40
1.5
100
AcDbArc
 50
270.0
 51
0.0
  0
LINE
  5
287
330
1F
100
AcDbEntity
  8
Layer0016
  6
DASHED2
 62
     4
370
    13
100
AcDbLine
 10
-50.42307692307692
 20
122.1178000743218
 30
0.0
 11
-54.88461538461538
 21
120.2588257153475
 31
0.0
  0
LINE
  5
288
330
1F
100
AcDbEntity
  8
Layer0016
  6
DASHED2
 62
     4
370
    13
100
AcDbLine
 10
-49.49999999999999
 20
124.0024154589372
 30
0.0
 11
-49.49999999999999
 21
123.5024154589372
 31
0.0
  0
LINE
  5
289
330
1F
100
AcDbEntity
  8
Layer0016
  6
DASHED2
 62
     4
370
    13
100
AcDbLine
 10
-55.49999999999999
 20
119.3357487922705
 30
0.0
 11
-55.49999999999999
 21
117.0024154589372
 31
0.0
  0
ARC
  5
28A
330
1F
100
AcDbEntity
  8
Layer0016
  6
DASHED2
 62
     4
370
    13
100
AcDbCircle
 10
-54.49999999999999
 20
119.3357487922705
 30
0.0
 40
1.0
100
AcDbArc
 50
112.6198649480403
 51
180.0
  0
ARC
  5
28B
330
1F
100
AcDbEntity
  8
Layer0016
  6
DASHED2
 62
     4
370
    13
100
AcDbCircle
 10
-50.99999999999999
 20
123.5024154589372
 30
0.0
 40
1.5
100
AcDbArc
 50
292.6198649480402
 51
0.0
  0
ARC
  5
28C
330
1F
100
AcDbEntity
  8
Layer0016
  6
DASHED2
 62
     4
370
    13
100
AcDbCircle
 10
-50.99999999999999
 20
124.0024154589372
 30
0.0
 40
1.5
100
AcDbArc
 50
0.0
 51
90.0
  0
LINE
  5
28D
330
1F
100
AcDbEntity
  8
Layer0016
  6
DASHED2
 62
     4
370
    13
100
AcDbLine
 10
-49.49999999999999
 20
122.5024154589372
 30
0.0
 11
0.0000000000000052
 21
122.5024154589372
 31
0.0
  0
LINE
  5
28E
330
1F
100
AcDbEntity
  8
Layer0016
  6
DASHED2
 62
     4
370
    13
100
AcDbLine
 10
-55.24535599249992
 20
120.0024154589372
 30
0.0
 11
0.000000000000005
 21
120.0024154589372
 31
0.0
  0
LINE
  5
28F
330
1F
100
AcDbEntity
  8
Layer0016
  6
DASHED2
 62
     4
370
    13
100
AcDbLine
 10
55.24535599249992
 20
114.0024154589372
 30
0.0
 11
0.0000000000000046
 21
114.0024154589372
 31
0.0
  0
LINE
  5
290
330
1F
100
AcDbEntity
  8
Layer0016
  6
DASHED2
 62
     4
370
    13
100
AcDbLine
 10
49.49999999999999
 20
111.5024154589372
 30
0.0
 11
0.0000000000000045
 21
111.5024154589372
 31
0.0
  0
LINE
  5
291
330
1F
100
AcDbEntity
  8
Layer0016
  6
DASHED2
 62
     4
370
    13
100
AcDbLine
 10
50.42307692307692
 20
111.8870308435526
 30
0.0
 11
54.88461538461538
 21
113.7460052025269
 31
0.0
  0
LINE
  5
292
330
1F
100
AcDbEntity
  8
Layer0016
  6
DASHED2
 62
     4
370
    13
100
AcDbLine
 10
49.49999999999999
 20
110.0024154589372
 30
0.0
 11
49.49999999999999
 21
110.5024154589372
 31
0.0
  0
LINE
  5
293
330
1F
100
AcDbEntity
  8
Layer0016
  6
DASHED2
 62
     4
370
    13
100
AcDbLine
 10
55.49999999999999
 20
114.6690821256039
 30
0.0
 11
55.49999999999999
 21
117.0024154589372
 31
0.0
  0
ARC
  5
294
330
1F
100
AcDbEntity
  8
Layer0016
  6
DASHED2
 62
     4
370
    13
100
AcDbCircle
 10
54.49999999999999
 20
114.6690821256039
 30
0.0
 40
1.0
100
AcDbArc
 50
292.6198649480403
 51
0.0
  0
ARC
  5
295
330
1F
100
AcDbEntity
  8
Layer0016
  6
DASHED2
 62
     4
370
    13
100
AcDbCircle
 10
50.99999999999999
 20
110.5024154589372
 30
0.0
 40
1.5
100
AcDbArc
 50
112.6198649480403
 51
180.0
  0
ARC
  5
296
330
1F
100
AcDbEntity
  8
Layer0016
  6
DASHED2
 62
     4
370
    13
100
AcDbCircle
 10
50.99999999999999
 20
110.0024154589372
 30
0.0
 40
1.5
100
AcDbArc
 50
180.0
 51
270.0
  0
LINE
  5
297
330
1F
100
AcDbEntity
  8
Layer0016
  6
DASHED2
 62
     4
370
    13
100
AcDbLine
 10
50.42307692307692
 20
122.1178000743218
 30
0.0
 11
54.88461538461538
 21
120.2588257153475
 31
0.0
  0
LINE
  5
298
330
1F
100
AcDbEntity
  8
Layer0016
  6
DASHED2
 62
     4
370
    13
100
AcDbLine
 10
49.49999999999999
 20
124.0024154589372
 30
0.0
 11
49.49999999999999
 21
123.5024154589372
 31
0.0
  0
LINE
  5
299
330
1F
100
AcDbEntity
  8
Layer0016
  6
DASHED2
 62
     4
370
    13
100
AcDbLine
 10
55.49999999999999
 20
119.3357487922705
 30
0.0
 11
55.49999999999999
 21
117.0024154589372
 31
0.0
  0
ARC
  5
29A
330
1F
100
AcDbEntity
  8
Layer0016
  6
DASHED2
 62
     4
370
    13
100
AcDbCircle
 10
54.49999999999999
 20
119.3357487922705
 30
0.0
 40
1.0
100
AcDbArc
 50
0.0
 51
67.38013505195971
  0
ARC
  5
29B
330
1F
100
AcDbEntity
  8
Layer0016
  6
DASHED2
 62
     4
370
    13
100
AcDbCircle
 10
50.99999999999999
 20
123.5024154589372
 30
0.0
 40
1.5
100
AcDbArc
 50
180.0
 51
247.3801350519597
  0
ARC
  5
29C
330
1F
100
AcDbEntity
  8
Layer0016
  6
DASHED2
 62
     4
370
    13
100
AcDbCircle
 10
50.99999999999999
 20
124.0024154589372
 30
0.0
 40
1.5
100
AcDbArc
 50
89.99999999999999
 51
180.0
  0
LINE
  5
29D
330
1F
100
AcDbEntity
  8
Layer0016
  6
DASHED2
 62
     4
370
    13
100
AcDbLine
 10
49.49999999999999
 20
122.5024154589372
 30
0.0
 11
0.0000000000000052
 21
122.5024154589372
 31
0.0
  0
LINE
  5
29E
330
1F
100
AcDbEntity
  8
Layer0016
  6
DASHED2
 62
     4
370
    13
100
AcDbLine
 10
55.24535599249992
 20
120.0024154589372
 30
0.0
 11
0.000000000000005
 21
120.0024154589372
 31
0.0
  0
LINE
  5
29F
330
1F
100
AcDbEntity
  8
Layer0016
  6
DASHED2
 62
     4
370
    13
100
AcDbLine
 10
77.49999999999997
 20
121.0024154589372
 30
0.0
 11
65.49999999999997
 21
121.0024154589372
 31
0.0
  0
LINE
  5
2A0
330
1F
100
AcDbEntity
  8
Layer0016
  6
DASHED2
 62
     4
370
    13
100
AcDbLine
 10
65.49999999999997
 20
113.0024154589372
 30
0.0
 11
77.49999999999997
 21
113.0024154589372
 31
0.0
  0
ARC
  5
2A1
330
1F
100
AcDbEntity
  8
Layer0016
  6
DASHED2
 62
     4
370
    13
100
AcDbCircle
 10
65.49999999999997
 20
117.0024154589372
 30
0.0
 40
4.0
100
AcDbArc
 50
90.0
 51
270.0
  0
ARC
  5
2A2
330
1F
100
AcDbEntity
  8
Layer0016
  6
DASHED2
 62
     4
370
    13
100
AcDbCircle
 10
77.49999999999997
 20
122.0024154589372
 30
0.0
 40
1.0
100
AcDbArc
 50
270.0
 51
0.0
  0
ARC
  5
2A3
330
1F
100
AcDbEntity
  8
Layer0016
  6
DASHED2
 62
     4
370
    13
100
AcDbCircle
 10
77.49999999999997
 20
112.0024154589372
 30
0.0
 40
1.0
100
AcDbArc
 50
0.0
 51
90.0
  0
LINE
  5
2A4
330
1F
100
AcDbEntity
  8
0
  6
Continuous
 62
     3
370
    18
100
AcDbLine
 10
126.1304347826087
 20
18.20200351807858
 30
0.0
 11
141.1304347826087
 21
18.20200351807858
 31
0.0
  0
LINE
  5
2A5
330
1F
100
AcDbEntity
  8
0
  6
Continuous
 62
     3
370
    18
100
AcDbLine
 10
126.1304347826087
 20
8.01083060813261
 30
0.0
 11
141.1304347826087
 21
8.01083060813261
 31
0.0
  0
ARC
  5
2A6
330
1F
100
AcDbEntity
  8
0
  6
Continuous
 62
     3
370
    18
100
AcDbCircle
 10
126.1304347826087
 20
17.20200351807858
 30
0.0
 40
1.0
100
AcDbArc
 50
90.0
 51
180.0
  0
ARC
  5
2A7
330
1F
100
AcDbEntity
  8
0
  6
Continuous
 62
     3
370
    18
100
AcDbCircle
 10
141.1304347826087
 20
17.20200351807858
 30
0.0
 40
1.0
100
AcDbArc
 50
0.0
 51
90.0
  0
ARC
  5
2A8
330
1F
100
AcDbEntity
  8
0
  6
Continuous
 62
     3
370
    18
100
AcDbCircle
 10
141.1304347826087
 20
9.01083060813261
 30
0.0
 40
1.0
100
AcDbArc
 50
270.0
 51
0.0
  0
ARC
  5
2A9
330
1F
100
AcDbEntity
  8
0
  6
Continuous
 62
     3
370
    18
100
AcDbCircle
 10
126.1304347826087
 20
9.01083060813261
 30
0.0
 40
1.0
100
AcDbArc
 50
180.0
 51
270.0
  0
ARC
  5
2AA
330
1F
100
AcDbEntity
  8
0
  6
Continuous
 62
     3
370
    18
100
AcDbCircle
 10
141.1304347826087
 20
4.000000000000005
 30
0.0
 40
1.0
100
AcDbArc
 50
0.0
 51
90.0
  0
ARC
  5
2AB
330
1F
100
AcDbEntity
  8
0
  6
Continuous
 62
     3
370
    18
100
AcDbCircle
 10
141.1304347826087
 20
-3.999999999999996
 30
0.0
 40
1.0
100
AcDbArc
 50
270.0
 51
0.0
  0
ARC
  5
2AC
330
1F
100
AcDbEntity
  8
0
  6
Continuous
 62
     3
370
    18
100
AcDbCircle
 10
126.1304347826087
 20
-3.999999999999996
 30
0.0
 40
1.0
100
AcDbArc
 50
180.0
 51
270.0
  0
ARC
  5
2AD
330
1F
100
AcDbEntity
  8
0
  6
Continuous
 62
     3
370
    18
100
AcDbCircle
 10
143.1304347826087
 20
2.000000000000007
 30
0.0
 40
1.0
100
AcDbArc
 50
53.13010235415639
 51
180.0
  0
ARC
  5
2AE
330
1F
100
AcDbEntity
  8
0
  6
Continuous
 62
     3
370
    18
100
AcDbCircle
 10
143.1304347826087
 20
-1.999999999999993
 30
0.0
 40
1.0
100
AcDbArc
 50
180.0
 51
306.8698976458437
  0
ARC
  5
2AF
330
1F
100
AcDbEntity
  8
0
  6
Continuous
 62
     3
370
    18
100
AcDbCircle
 10
141.6304347826087
 20
0.0000000000000069
 30
0.0
 40
3.5
100
AcDbArc
 50
306.8698976458439
 51
53.13010235415609
  0
ARC
  5
2B0
330
1F
100
AcDbEntity
  8
0
  6
Continuous
 62
     3
370
    18
100
AcDbCircle
 10
124.1304347826087
 20
2.000000000000007
 30
0.0
 40
1.0
100
AcDbArc
 50
0.0000000000000035
 51
126.8698976458436
  0
ARC
  5
2B1
330
1F
100
AcDbEntity
  8
0
  6
Continuous
 62
     3
370
    18
100
AcDbCircle
 10
124.1304347826087
 20
-1.999999999999993
 30
0.0
 40
1.0
100
AcDbArc
 50
233.1301023541564
 51
0.0
  0
ARC
  5
2B2
330
1F
100
AcDbEntity
  8
0
  6
Continuous
 62
     3
370
    18
100
AcDbCircle
 10
125.6304347826087
 20
0.0000000000000069
 30
0.0
 40
3.5
100
AcDbArc
 50
126.8698976458439
 51
233.1301023541561
  0
LINE
  5
2B3
330
1F
100
AcDbEntity
  8
0
  6
Continuous
 62
     3
370
    18
100
AcDbLine
 10
129.5804347826086
 20
17.20200351807858
 30
0.0
 11
129.5804347826086
 21
9.01083060813261
 31
0.0
  0
ARC
  5
2B4
330
1F
100
AcDbEntity
  8
0
  6
Continuous
 62
     3
370
    18
100
AcDbCircle
 10
128.5804347826086
 20
17.20200351807858
 30
0.0
 40
1.0
100
AcDbArc
 50
0.0
 51
90.0
  0
ARC
  5
2B5
330
1F
100
AcDbEntity
  8
0
  6
Continuous
 62
     3
370
    18
100
AcDbCircle
 10
128.5804347826086
 20
9.01083060813261
 30
0.0
 40
1.0
100
AcDbArc
 50
270.0
 51
0.0
  0
LINE
  5
2B6
330
1F
100
AcDbEntity
  8
0
  6
Continuous
 62
     3
370
    18
100
AcDbLine
 10
137.6804347826087
 20
17.20200351807858
 30
0.0
 11
137.6804347826087
 21
9.01083060813261
 31
0.0
  0
ARC
  5
2B7
330
1F
100
AcDbEntity
  8
0
  6
Continuous
 62
     3
370
    18
100
AcDbCircle
 10
138.6804347826087
 20
17.20200351807858
 30
0.0
 40
1.0
100
AcDbArc
 50
90.00000000000001
 51
180.0
  0
ARC
  5
2B8
330
1F
100
AcDbEntity
  8
0
  6
Continuous
 62
     3
370
    18
100
AcDbCircle
 10
138.6804347826087
 20
9.01083060813261
 30
0.0
 40
1.0
100
AcDbArc
 50
180.0
 51
270.0
  0
ARC
  5
2B9
330
1F
100
AcDbEntity
  8
0
  6
Continuous
 62
     3
370
    18
100
AcDbCircle
 10
-66.07647058823528
 20
109.5024154589372
 30
0.0
 40
1.0
100
AcDbArc
 50
180.0
 51
270.0
  0
ARC
  5
2BA
330
1F
100
AcDbEntity
  8
0
  6
Continuous
 62
     3
370
    18
100
AcDbCircle
 10
-56.34582557838933
 20
118.0024154589372
 30
0.0
 40
1.0
100
AcDbArc
 50
270.0
 51
0.0
  0
ARC
  5
2BB
330
1F
100
AcDbEntity
  8
0
  6
Continuous
 62
     3
370
    18
100
AcDbCircle
 10
-57.07647058823529
 20
124.5024154589372
 30
0.0
 40
1.0
100
AcDbArc
 50
0.0
 51
90.0
  0
ARC
  5
2BC
330
1F
100
AcDbEntity
  8
0
  6
Continuous
 62
     3
370
    18
100
AcDbCircle
 10
-66.07647058823528
 20
124.5024154589372
 30
0.0
 40
1.0
100
AcDbArc
 50
90.0
 51
180.0
  0
ARC
  5
2BD
330
1F
100
AcDbEntity
  8
0
  6
Continuous
 62
     3
370
    18
100
AcDbCircle
 10
-63.50000000000001
 20
126.5024154589372
 30
0.0
 40
1.0
100
AcDbArc
 50
143.1301023541564
 51
270.0
  0
ARC
  5
2BE
330
1F
100
AcDbEntity
  8
0
  6
Continuous
 62
     3
370
    18
100
AcDbCircle
 10
-59.50000000000001
 20
126.5024154589372
 30
0.0
 40
1.0
100
AcDbArc
 50
270.0
 51
36.86989764584361
  0
ARC
  5
2BF
330
1F
100
AcDbEntity
  8
0
  6
Continuous
 62
     3
370
    18
100
AcDbCircle
 10
-61.50000000000001
 20
125.0024154589372
 30
0.0
 40
3.5
100
AcDbArc
 50
36.86989764584391
 51
143.1301023541561
  0
ARC
  5
2C0
330
1F
100
AcDbEntity
  8
0
  6
Continuous
 62
     3
370
    18
100
AcDbCircle
 10
-63.50000000000001
 20
107.5024154589372
 30
0.0
 40
1.0
100
AcDbArc
 50
90.0
 51
216.8698976458436
  0
ARC
  5
2C1
330
1F
100
AcDbEntity
  8
0
  6
Continuous
 62
     3
370
    18
100
AcDbCircle
 10
-59.50000000000001
 20
107.5024154589372
 30
0.0
 40
1.0
100
AcDbArc
 50
323.1301023541563
 51
90.0
  0
ARC
  5
2C2
330
1F
100
AcDbEntity
  8
0
  6
Continuous
 62
     3
370
    18
100
AcDbCircle
 10
-61.50000000000001
 20
109.0024154589372
 30
0.0
 40
3.5
100
AcDbArc
 50
216.8698976458439
 51
323.1301023541561
  0
ARC
  5
2C3
330
1F
100
AcDbEntity
  8
0
  6
Continuous
 62
     3
370
    18
100
AcDbCircle
 10
-61.82710205150263
 20
-1.84661955633512
 30
0.0
 40
4.0
100
AcDbArc
 50
222.271328967524
 51
279.5792656237392
  0
ARC
  5
2C4
330
1F
100
AcDbEntity
  8
0
  6
Continuous
 62
     3
370
    18
100
AcDbCircle
 10
-56.9949156307434
 20
0.8129834884824447
 30
0.0
 40
7.5
100
AcDbArc
 50
359.1827803691896
 51
17.91052475436522
  0
LINE
  5
2C5
330
1F
100
AcDbEntity
  8
0
  6
Continuous
 62
     3
370
    18
100
AcDbLine
 10
-66.81288928117567
 20
0.9923961521524747
 30
0.0
 11
-50.79024676850766
 21
29.02758745045988
 31
0.0
  0
LINE
  5
2C6
330
1F
100
AcDbEntity
  8
0
  6
Continuous
 62
     3
370
    18
100
AcDbLine
 10
-66.81288928117567
 20
-0.9923961521524747
 30
0.0
 11
-50.79024676850766
 21
-29.02758745045989
 31
0.0
  0
LINE
  5
2C7
330
1F
100
AcDbEntity
  8
0
  6
Continuous
 62
     3
370
    18
100
AcDbLine
 10
77.10361851405166
 20
7.828282828282827
 30
0.0
 11
53.07739251281657
 21
5.388914922357192
 31
0.0
  0
LINE
  5
2C8
330
1F
100
AcDbEntity
  8
0
  6
Continuous
 62
     3
370
    18
100
AcDbLine
 10
78.13379335481834
 20
17.48171433202549
 30
0.0
 11
78.89136911239407
 21
10.02007383066566
 31
0.0
  0
LINE
  5
2C9
330
1F
100
AcDbEntity
  8
0
  6
Continuous
 62
     3
370
    18
100
AcDbLine
 10
57.51132330045516
 20
17.39820945472619
 30
0.0
 11
75.94200235243551
 21
19.26946493036792
 31
0.0
  0
ARC
  5
2CA
330
1F
100
AcDbEntity
  8
0
  6
Continuous
 62
     3
370
    18
100
AcDbCircle
 10
57.30930309843495
 20
19.38798025508882
 30
0.0
 40
2.0
100
AcDbArc
 50
188.7501278372944
 51
275.7973395408422
  0
ARC
  5
2CB
330
1F
100
AcDbEntity
  8
0
  6
Continuous
 62
     3
370
    18
100
AcDbCircle
 10
52.67335210877616
 20
9.36845652308244
 30
0.0
 40
4.0
100
AcDbArc
 50
190.0851372891611
 51
275.7973395408422
  0
ARC
  5
2CC
330
1F
100
AcDbEntity
  8
0
  6
Continuous
 62
     3
370
    18
100
AcDbCircle
 10
76.90159831203145
 20
9.818053628645451
 30
0.0
 40
2.0
100
AcDbArc
 50
275.7973395408424
 51
5.797339540842314
  0
LINE
  5
2CD
330
1F
100
AcDbEntity
  8
0
  6
Continuous
 62
     3
370
    18
100
AcDbLine
 10
77.10361851405166
 20
-7.828282828282827
 30
0.0
 11
53.07739251281657
 21
-5.388914922357192
 31
0.0
  0
LINE
  5
2CE
330
1F
100
AcDbEntity
  8
0
  6
Continuous
 62
     3
370
    18
100
AcDbLine
 10
78.13379335481832
 20
-17.4817143320255
 30
0.0
 11
78.89136911239407
 21
-10.02007383066565
 31
0.0
  0
LINE
  5
2CF
330
1F
100
AcDbEntity
  8
0
  6
Continuous
 62
     3
370
    18
100
AcDbLine
 10
57.51132330045515
 20
-17.3982094547262
 30
0.0
 11
75.94200235243551
 21
-19.26946493036792
 31
0.0
  0
ARC
  5
2D0
330
1F
100
AcDbEntity
  8
0
  6
Continuous
 62
     3
370
    18
100
AcDbCircle
 10
57.30930309843495
 20
-19.38798025508882
 30
0.0
 40
2.0
100
AcDbArc
 50
84.20266045915776
 51
171.2498721627056
  0
ARC
  5
2D1
330
1F
100
AcDbEntity
  8
0
  6
Continuous
 62
     3
370
    18
100
AcDbCircle
 10
52.67335210877616
 20
-9.36845652308244
 30
0.0
 40
4.0
100
AcDbArc
 50
84.20266045915776
 51
169.9148627108389
  0
ARC
  5
2D2
330
1F
100
AcDbEntity
  8
0
  6
Continuous
 62
     3
370
    18
100
AcDbCircle
 10
76.1440225544557
 20
-17.2796941300053
 30
0.0
 40
2.0
100
AcDbArc
 50
264.202660459158
 51
354.2026604591578
  0
ARC
  5
2D3
330
1F
100
AcDbEntity
  8
0
  6
Continuous
 62
     3
370
    18
100
AcDbCircle
 10
76.90159831203145
 20
-9.818053628645451
 30
0.0
 40
2.0
100
AcDbArc
 50
354.2026604591576
 51
84.20266045915758
  0
ARC
  5
2D4
330
1F
100
AcDbEntity
  8
0
  6
Continuous
 62
     3
370
    18
100
AcDbCircle
 10
76.14402255445572
 20
17.27969413000529
 30
0.0
 40
2.0
100
AcDbArc
 50
5.797339540842182
 51
95.79733954084229
  0
ARC
  5
2D5
330
1F
100
AcDbEntity
  8
0
  6
Continuous
 62
     3
370
    18
100
AcDbCircle
 10
0.0000000000000041
 20
0.0
 30
0.0
 40
49.49999999999999
100
AcDbArc
 50
10.08513728916105
 51
174.6619588807328
  0
ARC
  5
2D6
330
1F
100
AcDbEntity
  8
0
  6
Continuous
 62
     3
370
    18
100
AcDbCircle
 10
0.0000000000000041
 20
0.0
 30
0.0
 40
49.49999999999999
100
AcDbArc
 50
179.1827803691895
 51
349.914862710839
  0
LINE
  5
2D7
330
1F
100
AcDbEntity
  8
0
  6
Continuous
 62
     3
370
    18
100
AcDbLine
 10
-58.66022367042672
 20
-9.564991697563286
 30
0.0
 11
-50.54554011980235
 21
-8.797634568305792
 31
0.0
  0
ARC
  5
2D8
330
1F
100
AcDbEntity
  8
0
  6
Continuous
 62
     3
370
    18
100
AcDbCircle
 10
-58.47193561817965
 20
-11.5561088737689
 30
0.0
 40
2.0
100
AcDbArc
 50
95.40205531804631
 51
209.7487838992337
  0
ARC
  5
2D9
330
1F
100
AcDbEntity
  8
0
  6
Continuous
 62
     3
370
    18
100
AcDbCircle
 10
-50.35725206755528
 20
-10.7887517445114
 30
0.0
 40
2.0
100
AcDbArc
 50
12.09248567645944
 51
95.40205531804631
  0
LINE
  5
2DA
330
1F
100
AcDbEntity
  8
0
  6
Continuous
 62
     3
370
    18
100
AcDbLine
 10
126.1304347826087
 20
-8.01083060813261
 30
0.0
 11
141.1304347826087
 21
-8.01083060813261
 31
0.0
  0
LINE
  5
2DB
330
1F
100
AcDbEntity
  8
0
  6
Continuous
 62
     3
370
    18
100
AcDbLine
 10
126.1304347826087
 20
-18.20200351807859
 30
0.0
 11
141.1304347826087
 21
-18.20200351807859
 31
0.0
  0
ARC
  5
2DC
330
1F
100
AcDbEntity
  8
0
  6
Continuous
 62
     3
370
    18
100
AcDbCircle
 10
126.1304347826087
 20
-9.01083060813261
 30
0.0
 40
1.0
100
AcDbArc
 50
90.0
 51
180.0
  0
ARC
  5
2DD
330
1F
100
AcDbEntity
  8
0
  6
Continuous
 62
     3
370
    18
100
AcDbCircle
 10
141.1304347826087
 20
-9.01083060813261
 30
0.0
 40
1.0
100
AcDbArc
 50
0.0
 51
90.0
  0
ARC
  5
2DE
330
1F
100
AcDbEntity
  8
0
  6
Continuous
 62
     3
370
    18
100
AcDbCircle
 10
141.1304347826087
 20
-17.20200351807859
 30
0.0
 40
1.0
100
AcDbArc
 50
270.0
 51
0.0
  0
ARC
  5
2DF
330
1F
100
AcDbEntity
  8
0
  6
Continuous
 62
     3
370
    18
100
AcDbCircle
 10
126.1304347826087
 20
-17.20200351807859
 30
0.0
 40
1.0
100
AcDbArc
 50
180.0
 51
270.0
  0
LINE
  5
2E0
330
1F
100
AcDbEntity
  8
0
  6
Continuous
 62
     3
370
    18
100
AcDbLine
 10
129.5804347826086
 20
-9.01083060813261
 30
0.0
 11
129.5804347826086
 21
-17.20200351807859
 31
0.0
  0
ARC
  5
2E1
330
1F
100
AcDbEntity
  8
0
  6
Continuous
 62
     3
370
    18
100
AcDbCircle
 10
128.5804347826086
 20
-9.01083060813261
 30
0.0
 40
1.0
100
AcDbArc
 50
0.0
 51
90.0
  0
ARC
  5
2E2
330
1F
100
AcDbEntity
  8
0
  6
Continuous
 62
     3
370
    18
100
AcDbCircle
 10
128.5804347826086
 20
-17.20200351807859
 30
0.0
 40
1.0
100
AcDbArc
 50
270.0
 51
0.0
  0
LINE
  5
2E3
330
1F
100
AcDbEntity
  8
0
  6
Continuous
 62
     3
370
    18
100
AcDbLine
 10
137.6804347826087
 20
-9.01083060813261
 30
0.0
 11
137.6804347826087
 21
-17.20200351807859
 31
0.0
  0
ARC
  5
2E4
330
1F
100
AcDbEntity
  8
0
  6
Continuous
 62
     3
370
    18
100
AcDbCircle
 10
138.6804347826087
 20
-9.01083060813261
 30
0.0
 40
1.0
100
AcDbArc
 50
90.00000000000001
 51
180.0
  0
ARC
  5
2E5
330
1F
100
AcDbEntity
  8
0
  6
Continuous
 62
     3
370
    18
100
AcDbCircle
 10
138.6804347826087
 20
-17.20200351807859
 30
0.0
 40
1.0
100
AcDbArc
 50
180.0
 51
270.0
  0
LINE
  5
2E6
330
1F
100
AcDbEntity
  8
0
  6
DASHED2
 62
     4
370
    18
100
AcDbLine
 10
126.1304347826087
 20
5.000000000000005
 30
0.0
 11
141.1304347826087
 21
5.000000000000005
 31
0.0
  0
LINE
  5
2E7
330
1F
100
AcDbEntity
  8
0
  6
DASHED2
 62
     4
370
    18
100
AcDbLine
 10
126.1304347826087
 20
-4.999999999999996
 30
0.0
 11
141.1304347826087
 21
-4.999999999999996
 31
0.0
  0
ARC
  5
2E8
330
1F
100
AcDbEntity
  8
0
  6
DASHED2
 62
     4
370
    18
100
AcDbCircle
 10
126.1304347826087
 20
4.000000000000005
 30
0.0
 40
1.0
100
AcDbArc
 50
90.0
 51
180.0
  0
LINE
  5
2E9
330
1F
100
AcDbEntity
  8
0
  6
DASHED2
 62
     4
370
    18
100
AcDbLine
 10
137.6804347826087
 20
-3.999999999999996
 30
0.0
 11
137.6804347826087
 21
4.000000000000002
 31
0.0
  0
ARC
  5
2EA
330
1F
100
AcDbEntity
  8
0
  6
DASHED2
 62
     4
370
    18
100
AcDbCircle
 10
138.6804347826087
 20
-3.999999999999996
 30
0.0
 40
1.0
100
AcDbArc
 50
180.0
 51
270.0
  0
ARC
  5
2EB
330
1F
100
AcDbEntity
  8
0
  6
DASHED2
 62
     4
370
    18
100
AcDbCircle
 10
138.6804347826087
 20
4.000000000000002
 30
0.0
 40
1.0
100
AcDbArc
 50
90.00000000000001
 51
180.0
  0
LINE
  5
2EC
330
1F
100
AcDbEntity
  8
0
  6
DASHED2
 62
     4
370
    18
100
AcDbLine
 10
129.5804347826086
 20
-3.999999999999996
 30
0.0
 11
129.5804347826086
 21
4.000000000000002
 31
0.0
  0
ARC
  5
2ED
330
1F
100
AcDbEntity
  8
0
  6
DASHED2
 62
     4
370
    18
100
AcDbCircle
 10
128.5804347826086
 20
-3.999999999999996
 30
0.0
 40
1.0
100
AcDbArc
 50
270.0
 51
0.0
  0
ARC
  5
2EE
330
1F
100
AcDbEntity
  8
0
  6
DASHED2
 62
     4
370
    18
100
AcDbCircle
 10
128.5804347826086
 20
4.000000000000002
 30
0.0
 40
1.0
100
AcDbArc
 50
0.0
 51
90.0
  0
LINE
  5
2EF
330
1F
100
AcDbEntity
  8
0
  6
DASHED2
 62
     4
370
    18
100
AcDbLine
 10
129.5804347826086
 20
-3.999999999999993
 30
0.0
 11
137.6804347826087
 21
-3.999999999999993
 31
0.0
  0
ARC
  5
2F0
330
1F
100
AcDbEntity
  8
0
  6
DASHED2
 62
     4
370
    18
100
AcDbCircle
 10
-58.17183484035379
 20
1.241347048916742
 30
0.0
 40
7.5
100
AcDbArc
 50
69.99999999999997
 51
139.9331796462131
  0
ARC
  5
2F1
330
1F
100
AcDbEntity
  8
0
  6
DASHED2
 62
     4
370
    18
100
AcDbCircle
 10
-56.9949156307434
 20
0.8129834884824447
 30
0.0
 40
7.5
100
AcDbArc
 50
17.91052475436523
 51
69.99999999999991
  0
LINE
  5
2F2
330
1F
100
AcDbEntity
  8
0
  6
DASHED2
 62
     4
370
    13
100
AcDbLine
 10
142.1304347826087
 20
2.000000000000007
 30
0.0
 11
125.1304347826087
 21
2.000000000000007
 31
0.0
  0
LINE
  5
2F3
330
1F
100
AcDbEntity
  8
0
  6
DASHED2
 62
     4
370
    13
100
AcDbLine
 10
142.1304347826087
 20
-1.999999999999993
 30
0.0
 11
125.1304347826087
 21
-1.999999999999993
 31
0.0
  0
LINE
  5
2F4
330
1F
100
AcDbEntity
  8
0
  6
DASHED2
 62
     4
370
    13
100
AcDbLine
 10
-63.50000000000001
 20
125.5024154589372
 30
0.0
 11
-63.50000000000001
 21
108.5024154589372
 31
0.0
  0
LINE
  5
2F5
330
1F
100
AcDbEntity
  8
0
  6
DASHED2
 62
     4
370
    13
100
AcDbLine
 10
-59.50000000000001
 20
125.5024154589372
 30
0.0
 11
-59.50000000000001
 21
108.5024154589372
 31
0.0
  0
ARC
  5
2F6
330
1F
100
AcDbEntity
  8
0
  6
DASHED2
 62
     4
370
    13
100
AcDbCircle
 10
0.0
 20
0.0
 30
0.0
 40
55.49999999999999
100
AcDbArc
 50
5.797339540842279
 51
354.2026604591578
  0
LINE
  5
2F7
330
1F
100
AcDbEntity
  8
0
  6
DASHED2
 62
     4
370
    13
100
AcDbLine
 10
60.02383594953449
 20
17.65330331420663
 30
0.0
 11
61.18545211115065
 21
6.212121212121208
 31
0.0
  0
LINE
  5
2F8
330
1F
100
AcDbEntity
  8
0
  6
DASHED2
 62
     4
370
    13
100
AcDbLine
 10
61.18545211115067
 20
-6.21212121212121
 30
0.0
 11
60.02383594953451
 21
-17.6533033142063
 31
0.0
  0
LINE
  5
2F9
330
1F
100
AcDbEntity
  8
Layer0016
  6
DASHED2
 62
     4
370
    18
100
AcDbLine
 10
137.6304347826087
 20
8.010830608132595
 30
0.0
 11
137.6304347826087
 21
4.999999999999991
 31
0.0
  0
LINE
  5
2FA
330
1F
100
AcDbEntity
  8
Layer0016
  6
DASHED2
 62
     4
370
    18
100
AcDbLine
 10
129.6304347826087
 20
8.010830608132599
 30
0.0
 11
129.6304347826087
 21
4.999999999999994
 31
0.0
  0
LINE
  5
2FB
330
1F
100
AcDbEntity
  8
Layer0016
  6
DASHED2
 62
     4
370
    18
100
AcDbLine
 10
-55.6066837654113
 20
8.289041704811053
 30
0.0
 11
-54.42976455580085
 21
7.860678144376758
 31
0.0
  0
LINE
  5
2FC
330
1F
100
AcDbEntity
  8
Layer0016
  6
Continuous
 62
     3
370
    18
100
AcDbLine
 10
78.49999999999997
 20
124.5024154589372
 30
0.0
 11
78.49999999999997
 21
122.0024154589372
 31
0.0
  0
LINE
  5
2FD
330
1F
100
AcDbEntity
  8
Layer0016
  6
Continuous
 62
     3
370
    18
100
AcDbLine
 10
78.49999999999997
 20
112.0024154589372
 30
0.0
 11
78.49999999999997
 21
109.5024154589372
 31
0.0
  0
ARC
  5
2FE
330
1F
100
AcDbEntity
  8
Layer0016
  6
Continuous
 62
     3
370
    18
100
AcDbCircle
 10
77.49999999999997
 20
124.5024154589372
 30
0.0
 40
1.0
100
AcDbArc
 50
0.0
 51
90.0
  0
ARC
  5
2FF
330
1F
100
AcDbEntity
  8
Layer0016
  6
Continuous
 62
     3
370
    18
100
AcDbCircle
 10
77.49999999999997
 20
109.5024154589372
 30
0.0
 40
1.0
100
AcDbArc
 50
270.0
 51
0.0
  0
LINE
  5
300
330
1F
100
AcDbEntity
  8
Layer0016
  6
Continuous
 62
     3
370
    18
100
AcDbLine
 10
-55.34582557838932
 20
124.5024154589372
 30
0.0
 11
-55.34582557838932
 21
118.0024154589372
 31
0.0
  0
ARC
  5
301
330
1F
100
AcDbEntity
  8
Layer0016
  6
Continuous
 62
     3
370
    18
100
AcDbCircle
 10
-54.34582557838932
 20
124.5024154589372
 30
0.0
 40
1.0
100
AcDbArc
 50
90.0
 51
180.0
  0
ARC
  5
302
330
1F
100
AcDbEntity
  8
Layer0016
  6
Continuous
 62
     3
370
    18
100
AcDbCircle
 10
-63.65763317664859
 20
9.000000000000014
 30
0.0
 40
15.0
100
AcDbArc
 50
279.5792656237392
 51
342.9737275684264
  0
ARC
  5
303
330
1F
100
AcDbEntity
  8
Layer0016
  6
Continuous
 62
     3
370
    18
100
AcDbCircle
 10
-65.07647058823524
 20
0.0
 30
0.0
 40
2.0
100
AcDbArc
 50
150.2512161007663
 51
209.7487838992337
  0
LINE
  5
304
330
1F
100
AcDbEntity
  8
Layer0016
  6
CENTER
 62
     2
370
    13
100
AcDbLine
 10
68.35815995023152
 20
104.817239234119
 30
0.0
 11
68.35815995023152
 21
126.5693647611806
 31
0.0
  0
LINE
  5
305
330
1F
100
AcDbEntity
  8
0
  6
Continuous
 62
     3
370
    25
100
AcDbLine
 10
-0.0000000000000098
 20
80.49999999999999
 30
0.0
 11
-0.0000000000000098
 21
88.89312503623181
 31
0.0
  0
LINE
  5
306
330
1F
100
AcDbEntity
  8
0
  6
Continuous
 62
     3
370
    25
100
AcDbLine
 10
-0.0000000000000098
 20
85.31385358173351
 30
0.0
 11
-12.66359865180199
 21
85.31385358173351
 31
0.0
  0
LINE
  5
307
330
1F
100
AcDbEntity
  8
0
  6
Continuous
 62
     3
370
    25
100
AcDbLine
 10
-0.0000000000000098
 20
85.31385358173351
 30
0.0
 11
-4.835926021951489
 21
86.54488374334441
 31
0.0
  0
LINE
  5
308
330
1F
100
AcDbEntity
  8
0
  6
Continuous
 62
     3
370
    25
100
AcDbLine
 10
-4.835926021951489
 20
86.54488374334441
 30
0.0
 11
-6.060366433324741
 21
84.79568315566836
 31
0.0
  0
LINE
  5
309
330
1F
100
AcDbEntity
  8
0
  6
Continuous
 62
     3
370
    25
100
AcDbLine
 10
0.0999999999999561
 20
81.73458212723519
 30
0.0
 11
0.0999999999999561
 21
88.89312503623181
 31
0.0
  0
LINE
  5
30A
330
1F
100
AcDbEntity
  8
0
  6
Continuous
 62
     3
370
    25
100
AcDbLine
 10
0.1999999999999789
 20
81.73458212723519
 30
0.0
 11
0.1999999999999789
 21
88.89312503623181
 31
0.0
  0
LINE
  5
30B
330
1F
100
AcDbEntity
  8
0
  6
Continuous
 62
     3
370
    25
100
AcDbLine
 10
0.2999999999999448
 20
81.73458212723519
 30
0.0
 11
0.2999999999999448
 21
88.89312503623181
 31
0.0
  0
LINE
  5
30C
330
1F
100
AcDbEntity
  8
0
  6
Continuous
 62
     3
370
    25
100
AcDbLine
 10
0.3999999999999675
 20
81.73458212723519
 30
0.0
 11
0.3999999999999675
 21
88.89312503623181
 31
0.0
  0
LINE
  5
30D
330
1F
100
AcDbEntity
  8
0
  6
Continuous
 62
     3
370
    25
100
AcDbLine
 10
-0.1000000000000325
 20
81.73458212723519
 30
0.0
 11
-0.1000000000000325
 21
88.89312503623181
 31
0.0
  0
LINE
  5
30E
330
1F
100
AcDbEntity
  8
0
  6
Continuous
 62
     3
370
    25
100
AcDbLine
 10
-0.1999999999999984
 20
81.73458212723519
 30
0.0
 11
-0.1999999999999984
 21
88.89312503623181
 31
0.0
  0
LINE
  5
30F
330
1F
100
AcDbEntity
  8
0
  6
Continuous
 62
     3
370
    25
100
AcDbLine
 10
-0.3000000000000211
 20
81.73458212723519
 30
0.0
 11
-0.3000000000000211
 21
88.89312503623181
 31
0.0
  0
LINE
  5
310
330
1F
100
AcDbEntity
  8
0
  6
Continuous
 62
     3
370
    25
100
AcDbLine
 10
-0.399999999999987
 20
81.73458212723519
 30
0.0
 11
-0.399999999999987
 21
88.89312503623181
 31
0.0
  0
LINE
  5
311
330
1F
100
AcDbEntity
  8
0
  6
Continuous
 62
     3
370
    25
100
AcDbLine
 10
-0.0000000000000098
 20
80.49999999999999
 30
0.0
 11
-0.0000000000000098
 21
88.89312503623181
 31
0.0
  0
LINE
  5
312
330
1F
100
AcDbEntity
  8
0
  6
Continuous
 62
     3
370
    25
100
AcDbLine
 10
-0.0000000000000098
 20
85.31385358173351
 30
0.0
 11
-12.66359865180199
 21
85.31385358173351
 31
0.0
  0
LINE
  5
313
330
1F
100
AcDbEntity
  8
0
  6
Continuous
 62
     3
370
    25
100
AcDbLine
 10
-0.0000000000000098
 20
85.31385358173351
 30
0.0
 11
-4.835926021951489
 21
86.54488374334441
 31
0.0
  0
LINE
  5
314
330
1F
100
AcDbEntity
  8
0
  6
Continuous
 62
     3
370
    25
100
AcDbLine
 10
-4.835926021951489
 20
86.54488374334441
 30
0.0
 11
-6.060366433324741
 21
84.79568315566836
 31
0.0
  0
LINE
  5
315
330
1F
100
AcDbEntity
  8
0
  6
Continuous
 62
     3
370
    25
100
AcDbLine
 10
0.0999999999999561
 20
81.73458212723519
 30
0.0
 11
0.0999999999999561
 21
88.89312503623181
 31
0.0
  0
LINE
  5
316
330
1F
100
AcDbEntity
  8
0
  6
Continuous
 62
     3
370
    25
100
AcDbLine
 10
0.1999999999999789
 20
81.73458212723519
 30
0.0
 11
0.1999999999999789
 21
88.89312503623181
 31
0.0
  0
LINE
  5
317
330
1F
100
AcDbEntity
  8
0
  6
Continuous
 62
     3
370
    25
100
AcDbLine
 10
0.2999999999999448
 20
81.73458212723519
 30
0.0
 11
0.2999999999999448
 21
88.89312503623181
 31
0.0
  0
LINE
  5
318
330
1F
100
AcDbEntity
  8
0
  6
Continuous
 62
     3
370
    25
100
AcDbLine
 10
0.3999999999999675
 20
81.73458212723519
 30
0.0
 11
0.3999999999999675
 21
88.89312503623181
 31
0.0
  0
LINE
  5
319
330
1F
100
AcDbEntity
  8
0
  6
Continuous
 62
     3
370
    25
100
AcDbLine
 10
-0.1000000000000325
 20
81.73458212723519
 30
0.0
 11
-0.1000000000000325
 21
88.89312503623181
 31
0.0
  0
LINE
  5
31A
330
1F
100
AcDbEntity
  8
0
  6
Continuous
 62
     3
370
    25
100
AcDbLine
 10
-0.1999999999999984
 20
81.73458212723519
 30
0.0
 11
-0.1999999999999984
 21
88.89312503623181
 31
0.0
  0
LINE
  5
31B
330
1F
100
AcDbEntity
  8
0
  6
Continuous
 62
     3
370
    25
100
AcDbLine
 10
-0.3000000000000211
 20
81.73458212723519
 30
0.0
 11
-0.3000000000000211
 21
88.89312503623181
 31
0.0
  0
LINE
  5
31C
330
1F
100
AcDbEntity
  8
0
  6
Continuous
 62
     3
370
    25
100
AcDbLine
 10
-0.399999999999987
 20
81.73458212723519
 30
0.0
 11
-0.399999999999987
 21
88.89312503623181
 31
0.0
  0
LINE
  5
31D
330
1F
100
AcDbEntity
  8
0
  6
Continuous
 62
     3
370
    25
100
AcDbLine
 10
-0.0000000000000098
 20
80.49999999999999
 30
0.0
 11
-0.0000000000000098
 21
88.89312503623181
 31
0.0
  0
LINE
  5
31E
330
1F
100
AcDbEntity
  8
0
  6
Continuous
 62
     3
370
    25
100
AcDbLine
 10
-0.0000000000000098
 20
85.31385358173351
 30
0.0
 11
-12.66359865180199
 21
85.31385358173351
 31
0.0
  0
LINE
  5
31F
330
1F
100
AcDbEntity
  8
0
  6
Continuous
 62
     3
370
    25
100
AcDbLine
 10
-0.0000000000000098
 20
85.31385358173351
 30
0.0
 11
-4.835926021951489
 21
86.54488374334441
 31
0.0
  0
LINE
  5
320
330
1F
100
AcDbEntity
  8
0
  6
Continuous
 62
     3
370
    25
100
AcDbLine
 10
-4.835926021951489
 20
86.54488374334441
 30
0.0
 11
-6.060366433324741
 21
84.79568315566836
 31
0.0
  0
LINE
  5
321
330
1F
100
AcDbEntity
  8
0
  6
Continuous
 62
     3
370
    25
100
AcDbLine
 10
0.0999999999999561
 20
81.73458212723519
 30
0.0
 11
0.0999999999999561
 21
88.89312503623181
 31
0.0
  0
LINE
  5
322
330
1F
100
AcDbEntity
  8
0
  6
Continuous
 62
     3
370
    25
100
AcDbLine
 10
0.1999999999999789
 20
81.73458212723519
 30
0.0
 11
0.1999999999999789
 21
88.89312503623181
 31
0.0
  0
LINE
  5
323
330
1F
100
AcDbEntity
  8
0
  6
Continuous
 62
     3
370
    25
100
AcDbLine
 10
0.2999999999999448
 20
81.73458212723519
 30
0.0
 11
0.2999999999999448
 21
88.89312503623181
 31
0.0
  0
LINE
  5
324
330
1F
100
AcDbEntity
  8
0
  6
Continuous
 62
     3
370
    25
100
AcDbLine
 10
0.3999999999999675
 20
81.73458212723519
 30
0.0
 11
0.3999999999999675
 21
88.89312503623181
 31
0.0
  0
LINE
  5
325
330
1F
100
AcDbEntity
  8
0
  6
Continuous
 62
     3
370
    25
100
AcDbLine
 10
-0.1000000000000325
 20
81.73458212723519
 30
0.0
 11
-0.1000000000000325
 21
88.89312503623181
 31
0.0
  0
LINE
  5
326
330
1F
100
AcDbEntity
  8
0
  6
Continuous
 62
     3
370
    25
100
AcDbLine
 10
-0.1999999999999984
 20
81.73458212723519
 30
0.0
 11
-0.1999999999999984
 21
88.89312503623181
 31
0.0
  0
LINE
  5
327
330
1F
100
AcDbEntity
  8
0
  6
Continuous
 62
     3
370
    25
100
AcDbLine
 10
-0.3000000000000211
 20
81.73458212723519
 30
0.0
 11
-0.3000000000000211
 21
88.89312503623181
 31
0.0
  0
LINE
  5
328
330
1F
100
AcDbEntity
  8
0
  6
Continuous
 62
     3
370
    25
100
AcDbLine
 10
-0.399999999999987
 20
81.73458212723519
 30
0.0
 11
-0.399999999999987
 21
88.89312503623181
 31
0.0
  0
LINE
  5
329
330
1F
100
AcDbEntity
  8
0
  6
Continuous
 62
     3
370
    25
100
AcDbLine
 10
-0.0000000000000098
 20
80.49999999999999
 30
0.0
 11
-0.0000000000000098
 21
88.89312503623181
 31
0.0
  0
LINE
  5
32A
330
1F
100
AcDbEntity
  8
0
  6
Continuous
 62
     3
370
    25
100
AcDbLine
 10
-0.0000000000000098
 20
85.31385358173351
 30
0.0
 11
-12.66359865180199
 21
85.31385358173351
 31
0.0
  0
LINE
  5
32B
330
1F
100
AcDbEntity
  8
0
  6
Continuous
 62
     3
370
    25
100
AcDbLine
 10
-0.0000000000000098
 20
85.31385358173351
 30
0.0
 11
-4.835926021951489
 21
86.54488374334441
 31
0.0
  0
LINE
  5
32C
330
1F
100
AcDbEntity
  8
0
  6
Continuous
 62
     3
370
    25
100
AcDbLine
 10
-4.835926021951489
 20
86.54488374334441
 30
0.0
 11
-6.060366433324741
 21
84.79568315566836
 31
0.0
  0
LINE
  5
32D
330
1F
100
AcDbEntity
  8
0
  6
Continuous
 62
     3
370
    25
100
AcDbLine
 10
0.0999999999999561
 20
81.73458212723519
 30
0.0
 11
0.0999999999999561
 21
88.89312503623181
 31
0.0
  0
LINE
  5
32E
330
1F
100
AcDbEntity
  8
0
  6
Continuous
 62
     3
370
    25
100
AcDbLine
 10
0.1999999999999789
 20
81.73458212723519
 30
0.0
 11
0.1999999999999789
 21
88.89312503623181
 31
0.0
  0
LINE
  5
32F
330
1F
100
AcDbEntity
  8
0
  6
Continuous
 62
     3
370
    25
100
AcDbLine
 10
0.2999999999999448
 20
81.73458212723519
 30
0.0
 11
0.2999999999999448
 21
88.89312503623181
 31
0.0
  0
LINE
  5
330
330
1F
100
AcDbEntity
  8
0
  6
Continuous
 62
     3
370
    25
100
AcDbLine
 10
0.3999999999999675
 20
81.73458212723519
 30
0.0
 11
0.3999999999999675
 21
88.89312503623181
 31
0.0
  0
LINE
  5
331
330
1F
100
AcDbEntity
  8
0
  6
Continuous
 62
     3
370
    25
100
AcDbLine
 10
-0.1000000000000325
 20
81.73458212723519
 30
0.0
 11
-0.1000000000000325
 21
88.89312503623181
 31
0.0
  0
LINE
  5
332
330
1F
100
AcDbEntity
  8
0
  6
Continuous
 62
     3
370
    25
100
AcDbLine
 10
-0.1999999999999984
 20
81.73458212723519
 30
0.0
 11
-0.1999999999999984
 21
88.89312503623181
 31
0.0
  0
LINE
  5
333
330
1F
100
AcDbEntity
  8
0
  6
Continuous
 62
     3
370
    25
100
AcDbLine
 10
-0.3000000000000211
 20
81.73458212723519
 30
0.0
 11
-0.3000000000000211
 21
88.89312503623181
 31
0.0
  0
LINE
  5
334
330
1F
100
AcDbEntity
  8
0
  6
Continuous
 62
     3
370
    25
100
AcDbLine
 10
-0.399999999999987
 20
81.73458212723519
 30
0.0
 11
-0.399999999999987
 21
88.89312503623181
 31
0.0
  0
LINE
  5
335
330
1F
100
AcDbEntity
  8
0
  6
Continuous
 62
     3
370
    25
100
AcDbLine
 10
-0.0000000000000187
 20
-88.0994577500825
 30
0.0
 11
-0.0000000000000187
 21
-80.50000000000001
 31
0.0
  0
LINE
  5
336
330
1F
100
AcDbEntity
  8
0
  6
Continuous
 62
     3
370
    25
100
AcDbLine
 10
-0.0000000000000187
 20
-84.52018629558417
 30
0.0
 11
-12.663598651802
 21
-84.52018629558417
 31
0.0
  0
LINE
  5
337
330
1F
100
AcDbEntity
  8
0
  6
Continuous
 62
     3
370
    25
100
AcDbLine
 10
-0.0000000000000187
 20
-84.52018629558417
 30
0.0
 11
-4.835926021951498
 21
-83.28915613397324
 31
0.0
  0
LINE
  5
338
330
1F
100
AcDbEntity
  8
0
  6
Continuous
 62
     3
370
    25
100
AcDbLine
 10
-4.835926021951498
 20
-83.28915613397324
 30
0.0
 11
-6.060366433324778
 21
-85.03835672164935
 31
0.0
  0
LINE
  5
339
330
1F
100
AcDbEntity
  8
0
  6
Continuous
 62
     3
370
    25
100
AcDbLine
 10
0.0999999999999472
 20
-88.0994577500825
 30
0.0
 11
0.0999999999999472
 21
-80.94091484108584
 31
0.0
  0
LINE
  5
33A
330
1F
100
AcDbEntity
  8
0
  6
Continuous
 62
     3
370
    25
100
AcDbLine
 10
0.1999999999999699
 20
-88.0994577500825
 30
0.0
 11
0.1999999999999699
 21
-80.94091484108584
 31
0.0
  0
LINE
  5
33B
330
1F
100
AcDbEntity
  8
0
  6
Continuous
 62
     3
370
    25
100
AcDbLine
 10
0.2999999999999358
 20
-88.0994577500825
 30
0.0
 11
0.2999999999999358
 21
-80.94091484108584
 31
0.0
  0
LINE
  5
33C
330
1F
100
AcDbEntity
  8
0
  6
Continuous
 62
     3
370
    25
100
AcDbLine
 10
0.3999999999999586
 20
-88.0994577500825
 30
0.0
 11
0.3999999999999586
 21
-80.94091484108584
 31
0.0
  0
LINE
  5
33D
330
1F
100
AcDbEntity
  8
0
  6
Continuous
 62
     3
370
    25
100
AcDbLine
 10
-0.1000000000000414
 20
-88.0994577500825
 30
0.0
 11
-0.1000000000000414
 21
-80.94091484108584
 31
0.0
  0
LINE
  5
33E
330
1F
100
AcDbEntity
  8
0
  6
Continuous
 62
     3
370
    25
100
AcDbLine
 10
-0.2000000000000073
 20
-88.0994577500825
 30
0.0
 11
-0.2000000000000073
 21
-80.94091484108584
 31
0.0
  0
LINE
  5
33F
330
1F
100
AcDbEntity
  8
0
  6
Continuous
 62
     3
370
    25
100
AcDbLine
 10
-0.3000000000000301
 20
-88.0994577500825
 30
0.0
 11
-0.3000000000000301
 21
-80.94091484108584
 31
0.0
  0
LINE
  5
340
330
1F
100
AcDbEntity
  8
0
  6
Continuous
 62
     3
370
    25
100
AcDbLine
 10
-0.399999999999996
 20
-88.0994577500825
 30
0.0
 11
-0.399999999999996
 21
-80.94091484108584
 31
0.0
  0
LINE
  5
341
330
1F
100
AcDbEntity
  8
0
  6
Continuous
 62
     3
370
    25
100
AcDbLine
 10
-0.0000000000000187
 20
-88.0994577500825
 30
0.0
 11
-0.0000000000000187
 21
-80.50000000000001
 31
0.0
  0
LINE
  5
342
330
1F
100
AcDbEntity
  8
0
  6
Continuous
 62
     3
370
    25
100
AcDbLine
 10
-0.0000000000000187
 20
-84.52018629558417
 30
0.0
 11
-12.663598651802
 21
-84.52018629558417
 31
0.0
  0
LINE
  5
343
330
1F
100
AcDbEntity
  8
0
  6
Continuous
 62
     3
370
    25
100
AcDbLine
 10
-0.0000000000000187
 20
-84.52018629558417
 30
0.0
 11
-4.835926021951498
 21
-83.28915613397324
 31
0.0
  0
LINE
  5
344
330
1F
100
AcDbEntity
  8
0
  6
Continuous
 62
     3
370
    25
100
AcDbLine
 10
-4.835926021951498
 20
-83.28915613397324
 30
0.0
 11
-6.060366433324778
 21
-85.03835672164935
 31
0.0
  0
LINE
  5
345
330
1F
100
AcDbEntity
  8
0
  6
Continuous
 62
     3
370
    25
100
AcDbLine
 10
0.0999999999999472
 20
-88.0994577500825
 30
0.0
 11
0.0999999999999472
 21
-80.94091484108584
 31
0.0
  0
LINE
  5
346
330
1F
100
AcDbEntity
  8
0
  6
Continuous
 62
     3
370
    25
100
AcDbLine
 10
0.1999999999999699
 20
-88.0994577500825
 30
0.0
 11
0.1999999999999699
 21
-80.94091484108584
 31
0.0
  0
LINE
  5
347
330
1F
100
AcDbEntity
  8
0
  6
Continuous
 62
     3
370
    25
100
AcDbLine
 10
0.2999999999999358
 20
-88.0994577500825
 30
0.0
 11
0.2999999999999358
 21
-80.94091484108584
 31
0.0
  0
LINE
  5
348
330
1F
100
AcDbEntity
  8
0
  6
Continuous
 62
     3
370
    25
100
AcDbLine
 10
0.3999999999999586
 20
-88.0994577500825
 30
0.0
 11
0.3999999999999586
 21
-80.94091484108584
 31
0.0
  0
LINE
  5
349
330
1F
100
AcDbEntity
  8
0
  6
Continuous
 62
     3
370
    25
100
AcDbLine
 10
-0.1000000000000414
 20
-88.0994577500825
 30
0.0
 11
-0.1000000000000414
 21
-80.94091484108584
 31
0.0
  0
LINE
  5
34A
330
1F
100
AcDbEntity
  8
0
  6
Continuous
 62
     3
370
    25
100
AcDbLine
 10
-0.2000000000000073
 20
-88.0994577500825
 30
0.0
 11
-0.2000000000000073
 21
-80.94091484108584
 31
0.0
  0
LINE
  5
34B
330
1F
100
AcDbEntity
  8
0
  6
Continuous
 62
     3
370
    25
100
AcDbLine
 10
-0.3000000000000301
 20
-88.0994577500825
 30
0.0
 11
-0.3000000000000301
 21
-80.94091484108584
 31
0.0
  0
LINE
  5
34C
330
1F
100
AcDbEntity
  8
0
  6
Continuous
 62
     3
370
    25
100
AcDbLine
 10
-0.399999999999996
 20
-88.0994577500825
 30
0.0
 11
-0.399999999999996
 21
-80.94091484108584
 31
0.0
  0
LINE
  5
34D
330
1F
100
AcDbEntity
  8
0
  6
Continuous
 62
     3
370
    25
100
AcDbLine
 10
-0.0000000000000187
 20
-88.0994577500825
 30
0.0
 11
-0.0000000000000187
 21
-80.50000000000001
 31
0.0
  0
LINE
  5
34E
330
1F
100
AcDbEntity
  8
0
  6
Continuous
 62
     3
370
    25
100
AcDbLine
 10
-0.0000000000000187
 20
-84.52018629558417
 30
0.0
 11
-12.663598651802
 21
-84.52018629558417
 31
0.0
  0
LINE
  5
34F
330
1F
100
AcDbEntity
  8
0
  6
Continuous
 62
     3
370
    25
100
AcDbLine
 10
-0.0000000000000187
 20
-84.52018629558417
 30
0.0
 11
-4.835926021951498
 21
-83.28915613397324
 31
0.0
  0
LINE
  5
350
330
1F
100
AcDbEntity
  8
0
  6
Continuous
 62
     3
370
    25
100
AcDbLine
 10
-4.835926021951498
 20
-83.28915613397324
 30
0.0
 11
-6.060366433324778
 21
-85.03835672164935
 31
0.0
  0
LINE
  5
351
330
1F
100
AcDbEntity
  8
0
  6
Continuous
 62
     3
370
    25
100
AcDbLine
 10
0.0999999999999472
 20
-88.0994577500825
 30
0.0
 11
0.0999999999999472
 21
-80.94091484108584
 31
0.0
  0
LINE
  5
352
330
1F
100
AcDbEntity
  8
0
  6
Continuous
 62
     3
370
    25
100
AcDbLine
 10
0.1999999999999699
 20
-88.0994577500825
 30
0.0
 11
0.1999999999999699
 21
-80.94091484108584
 31
0.0
  0
LINE
  5
353
330
1F
100
AcDbEntity
  8
0
  6
Continuous
 62
     3
370
    25
100
AcDbLine
 10
0.2999999999999358
 20
-88.0994577500825
 30
0.0
 11
0.2999999999999358
 21
-80.94091484108584
 31
0.0
  0
LINE
  5
354
330
1F
100
AcDbEntity
  8
0
  6
Continuous
 62
     3
370
    25
100
AcDbLine
 10
0.3999999999999586
 20
-88.0994577500825
 30
0.0
 11
0.3999999999999586
 21
-80.94091484108584
 31
0.0
  0
LINE
  5
355
330
1F
100
AcDbEntity
  8
0
  6
Continuous
 62
     3
370
    25
100
AcDbLine
 10
-0.1000000000000414
 20
-88.0994577500825
 30
0.0
 11
-0.1000000000000414
 21
-80.94091484108584
 31
0.0
  0
LINE
  5
356
330
1F
100
AcDbEntity
  8
0
  6
Continuous
 62
     3
370
    25
100
AcDbLine
 10
-0.2000000000000073
 20
-88.0994577500825
 30
0.0
 11
-0.2000000000000073
 21
-80.94091484108584
 31
0.0
  0
LINE
  5
357
330
1F
100
AcDbEntity
  8
0
  6
Continuous
 62
     3
370
    25
100
AcDbLine
 10
-0.3000000000000301
 20
-88.0994577500825
 30
0.0
 11
-0.3000000000000301
 21
-80.94091484108584
 31
0.0
  0
LINE
  5
358
330
1F
100
AcDbEntity
  8
0
  6
Continuous
 62
     3
370
    25
100
AcDbLine
 10
-0.399999999999996
 20
-88.0994577500825
 30
0.0
 11
-0.399999999999996
 21
-80.94091484108584
 31
0.0
  0
LINE
  5
359
330
1F
100
AcDbEntity
  8
0
  6
Continuous
 62
     3
370
    25
100
AcDbLine
 10
-0.0000000000000187
 20
-88.0994577500825
 30
0.0
 11
-0.0000000000000187
 21
-80.50000000000001
 31
0.0
  0
LINE
  5
35A
330
1F
100
AcDbEntity
  8
0
  6
Continuous
 62
     3
370
    25
100
AcDbLine
 10
-0.0000000000000187
 20
-84.52018629558417
 30
0.0
 11
-12.663598651802
 21
-84.52018629558417
 31
0.0
  0
LINE
  5
35B
330
1F
100
AcDbEntity
  8
0
  6
Continuous
 62
     3
370
    25
100
AcDbLine
 10
-0.0000000000000187
 20
-84.52018629558417
 30
0.0
 11
-4.835926021951498
 21
-83.28915613397324
 31
0.0
  0
LINE
  5
35C
330
1F
100
AcDbEntity
  8
0
  6
Continuous
 62
     3
370
    25
100
AcDbLine
 10
-4.835926021951498
 20
-83.28915613397324
 30
0.0
 11
-6.060366433324778
 21
-85.03835672164935
 31
0.0
  0
LINE
  5
35D
330
1F
100
AcDbEntity
  8
0
  6
Continuous
 62
     3
370
    25
100
AcDbLine
 10
0.0999999999999472
 20
-88.0994577500825
 30
0.0
 11
0.0999999999999472
 21
-80.94091484108584
 31
0.0
  0
LINE
  5
35E
330
1F
100
AcDbEntity
  8
0
  6
Continuous
 62
     3
370
    25
100
AcDbLine
 10
0.1999999999999699
 20
-88.0994577500825
 30
0.0
 11
0.1999999999999699
 21
-80.94091484108584
 31
0.0
  0
LINE
  5
35F
330
1F
100
AcDbEntity
  8
0
  6
Continuous
 62
     3
370
    25
100
AcDbLine
 10
0.2999999999999358
 20
-88.0994577500825
 30
0.0
 11
0.2999999999999358
 21
-80.94091484108584
 31
0.0
  0
LINE
  5
360
330
1F
100
AcDbEntity
  8
0
  6
Continuous
 62
     3
370
    25
100
AcDbLine
 10
0.3999999999999586
 20
-88.0994577500825
 30
0.0
 11
0.3999999999999586
 21
-80.94091484108584
 31
0.0
  0
LINE
  5
361
330
1F
100
AcDbEntity
  8
0
  6
Continuous
 62
     3
370
    25
100
AcDbLine
 10
-0.1000000000000414
 20
-88.0994577500825
 30
0.0
 11
-0.1000000000000414
 21
-80.94091484108584
 31
0.0
  0
LINE
  5
362
330
1F
100
AcDbEntity
  8
0
  6
Continuous
 62
     3
370
    25
100
AcDbLine
 10
-0.2000000000000073
 20
-88.0994577500825
 30
0.0
 11
-0.2000000000000073
 21
-80.94091484108584
 31
0.0
  0
LINE
  5
363
330
1F
100
AcDbEntity
  8
0
  6
Continuous
 62
     3
370
    25
100
AcDbLine
 10
-0.3000000000000301
 20
-88.0994577500825
 30
0.0
 11
-0.3000000000000301
 21
-80.94091484108584
 31
0.0
  0
LINE
  5
364
330
1F
100
AcDbEntity
  8
0
  6
Continuous
 62
     3
370
    25
100
AcDbLine
 10
-0.399999999999996
 20
-88.0994577500825
 30
0.0
 11
-0.399999999999996
 21
-80.94091484108584
 31
0.0
  0
LINE
  5
365
330
1F
100
AcDbEntity
  8
ZUWAKU
  6
Continuous
 62
     4
370
    18
100
AcDbLine
 10
-200.0
 20
138.5
 30
0.0
 11
200.0
 21
138.5
 31
0.0
  0
LINE
  5
366
330
1F
100
AcDbEntity
  8
ZUWAKU
  6
Continuous
 62
     4
370
    18
100
AcDbLine
 10
-200.0
 20
-138.5
 30
0.0
 11
200.0
 21
-138.5
 31
0.0
  0
LINE
  5
367
330
1F
100
AcDbEntity
  8
ZUWAKU
  6
Continuous
 62
     4
370
    18
100
AcDbLine
 10
200.0
 20
138.5
 30
0.0
 11
200.0
 21
-138.5
 31
0.0
  0
LINE
  5
368
330
1F
100
AcDbEntity
  8
ZUWAKU
  6
Continuous
 62
     4
370
    18
100
AcDbLine
 10
-200.0
 20
-138.5
 30
0.0
 11
-200.0
 21
138.5
 31
0.0
  0
LINE
  5
369
330
1F
100
AcDbEntity
  8
ZUWAKU
  6
Continuous
 62
     7
370
    18
100
AcDbLine
 10
-166.666667
 20
138.5
 30
0.0
 11
-166.666667
 21
143.5
 31
0.0
  0
LINE
  5
36A
330
1F
100
AcDbEntity
  8
ZUWAKU
  6
Continuous
 62
     7
370
    18
100
AcDbLine
 10
-133.333333
 20
138.5
 30
0.0
 11
-133.333333
 21
143.5
 31
0.0
  0
LINE
  5
36B
330
1F
100
AcDbEntity
  8
ZUWAKU
  6
Continuous
 62
     7
370
    18
100
AcDbLine
 10
-100.0
 20
138.5
 30
0.0
 11
-100.0
 21
143.5
 31
0.0
  0
LINE
  5
36C
330
1F
100
AcDbEntity
  8
ZUWAKU
  6
Continuous
 62
     7
370
    18
100
AcDbLine
 10
-66.666667
 20
138.5
 30
0.0
 11
-66.666667
 21
143.5
 31
0.0
  0
LINE
  5
36D
330
1F
100
AcDbEntity
  8
ZUWAKU
  6
Continuous
 62
     7
370
    18
100
AcDbLine
 10
-33.33333300000003
 20
138.5
 30
0.0
 11
-33.33333300000003
 21
143.5
 31
0.0
  0
LINE
  5
36E
330
1F
100
AcDbEntity
  8
ZUWAKU
  6
Continuous
 62
     7
370
    18
100
AcDbLine
 10
33.33333299999999
 20
138.5
 30
0.0
 11
33.33333299999999
 21
143.5
 31
0.0
  0
LINE
  5
36F
330
1F
100
AcDbEntity
  8
ZUWAKU
  6
Continuous
 62
     7
370
    18
100
AcDbLine
 10
66.666667
 20
138.5
 30
0.0
 11
66.666667
 21
143.5
 31
0.0
  0
LINE
  5
370
330
1F
100
AcDbEntity
  8
ZUWAKU
  6
Continuous
 62
     7
370
    18
100
AcDbLine
 10
100.0
 20
138.5
 30
0.0
 11
100.0
 21
143.5
 31
0.0
  0
LINE
  5
371
330
1F
100
AcDbEntity
  8
ZUWAKU
  6
Continuous
 62
     7
370
    18
100
AcDbLine
 10
133.333333
 20
138.5
 30
0.0
 11
133.333333
 21
143.5
 31
0.0
  0
LINE
  5
372
330
1F
100
AcDbEntity
  8
ZUWAKU
  6
Continuous
 62
     7
370
    18
100
AcDbLine
 10
166.666667
 20
138.5
 30
0.0
 11
166.666667
 21
143.5
 31
0.0
  0
LINE
  5
373
330
1F
100
AcDbEntity
  8
ZUWAKU
  6
Continuous
 62
     7
370
    18
100
AcDbLine
 10
-0.0000000000000187
 20
138.5
 30
0.0
 11
-0.0000000000000187
 21
148.5
 31
0.0
  0
LINE
  5
374
330
1F
100
AcDbEntity
  8
ZUWAKU
  6
Continuous
 62
     7
370
    18
100
AcDbLine
 10
-166.666667
 20
-138.5
 30
0.0
 11
-166.666667
 21
-143.5
 31
0.0
  0
LINE
  5
375
330
1F
100
AcDbEntity
  8
ZUWAKU
  6
Continuous
 62
     7
370
    18
100
AcDbLine
 10
-133.333333
 20
-138.5
 30
0.0
 11
-133.333333
 21
-143.5
 31
0.0
  0
LINE
  5
376
330
1F
100
AcDbEntity
  8
ZUWAKU
  6
Continuous
 62
     7
370
    18
100
AcDbLine
 10
-100.0
 20
-138.5
 30
0.0
 11
-100.0
 21
-143.5
 31
0.0
  0
LINE
  5
377
330
1F
100
AcDbEntity
  8
ZUWAKU
  6
Continuous
 62
     7
370
    18
100
AcDbLine
 10
-66.666667
 20
-138.5
 30
0.0
 11
-66.666667
 21
-143.5
 31
0.0
  0
LINE
  5
378
330
1F
100
AcDbEntity
  8
ZUWAKU
  6
Continuous
 62
     7
370
    18
100
AcDbLine
 10
-33.33333300000003
 20
-138.5
 30
0.0
 11
-33.33333300000003
 21
-143.5
 31
0.0
  0
LINE
  5
379
330
1F
100
AcDbEntity
  8
ZUWAKU
  6
Continuous
 62
     7
370
    18
100
AcDbLine
 10
33.33333299999999
 20
-138.5
 30
0.0
 11
33.33333299999999
 21
-143.5
 31
0.0
  0
LINE
  5
37A
330
1F
100
AcDbEntity
  8
ZUWAKU
  6
Continuous
 62
     7
370
    18
100
AcDbLine
 10
66.666667
 20
-138.5
 30
0.0
 11
66.666667
 21
-143.5
 31
0.0
  0
LINE
  5
37B
330
1F
100
AcDbEntity
  8
ZUWAKU
  6
Continuous
 62
     7
370
    18
100
AcDbLine
 10
100.0
 20
-138.5
 30
0.0
 11
100.0
 21
-143.5
 31
0.0
  0
LINE
  5
37C
330
1F
100
AcDbEntity
  8
ZUWAKU
  6
Continuous
 62
     7
370
    18
100
AcDbLine
 10
133.333333
 20
-138.5
 30
0.0
 11
133.333333
 21
-143.5
 31
0.0
  0
LINE
  5
37D
330
1F
100
AcDbEntity
  8
ZUWAKU
  6
Continuous
 62
     7
370
    18
100
AcDbLine
 10
166.666667
 20
-138.5
 30
0.0
 11
166.666667
 21
-143.5
 31
0.0
  0
LINE
  5
37E
330
1F
100
AcDbEntity
  8
ZUWAKU
  6
Continuous
 62
     7
370
    18
100
AcDbLine
 10
-0.0000000000000187
 20
-138.5
 30
0.0
 11
-0.0000000000000187
 21
-148.5
 31
0.0
  0
LINE
  5
37F
330
1F
100
AcDbEntity
  8
ZUWAKU
  6
Continuous
 62
     7
370
    18
100
AcDbLine
 10
200.0
 20
-103.875
 30
0.0
 11
205.0
 21
-103.875
 31
0.0
  0
LINE
  5
380
330
1F
100
AcDbEntity
  8
ZUWAKU
  6
Continuous
 62
     7
370
    18
100
AcDbLine
 10
145.0
 20
-115.5
 30
0.0
 11
145.0
 21
-129.5
 31
0.0
  0
LINE
  5
381
330
1F
100
AcDbEntity
  8
ZUWAKU
  6
Continuous
 62
     7
370
    18
100
AcDbLine
 10
153.0
 20
-115.5
 30
0.0
 11
153.0
 21
-129.5
 31
0.0
  0
LINE
  5
382
330
1F
100
AcDbEntity
  8
ZUWAKU
  6
Continuous
 62
     7
370
    18
100
AcDbLine
 10
-200.0
 20
-103.875
 30
0.0
 11
-205.0
 21
-103.875
 31
0.0
  0
LINE
  5
383
330
1F
100
AcDbEntity
  8
ZUWAKU
  6
Continuous
 62
     7
370
    18
100
AcDbLine
 10
200.0
 20
103.875
 30
0.0
 11
205.0
 21
103.875
 31
0.0
  0
LINE
  5
384
330
1F
100
AcDbEntity
  8
ZUWAKU
  6
Continuous
 62
     7
370
    18
100
AcDbLine
 10
200.0
 20
69.25
 30
0.0
 11
205.0
 21
69.25
 31
0.0
  0
LINE
  5
385
330
1F
100
AcDbEntity
  8
ZUWAKU
  6
Continuous
 62
     7
370
    18
100
AcDbLine
 10
200.0
 20
34.62499999999999
 30
0.0
 11
205.0
 21
34.62499999999999
 31
0.0
  0
LINE
  5
386
330
1F
100
AcDbEntity
  8
ZUWAKU
  6
Continuous
 62
     7
370
    18
100
AcDbLine
 10
200.0
 20
-34.62500000000001
 30
0.0
 11
205.0
 21
-34.62500000000001
 31
0.0
  0
LINE
  5
387
330
1F
100
AcDbEntity
  8
ZUWAKU
  6
Continuous
 62
     7
370
    18
100
AcDbLine
 10
200.0
 20
-69.25
 30
0.0
 11
205.0
 21
-69.25
 31
0.0
  0
LINE
  5
388
330
1F
100
AcDbEntity
  8
ZUWAKU
  6
Continuous
 62
     7
370
    18
100
AcDbLine
 10
200.0
 20
-0.0000000000000028
 30
0.0
 11
210.0
 21
-0.0000000000000028
 31
0.0
  0
LINE
  5
389
330
1F
100
AcDbEntity
  8
ZUWAKU
  6
Continuous
 62
     7
370
    18
100
AcDbLine
 10
-200.0
 20
103.875
 30
0.0
 11
-205.0
 21
103.875
 31
0.0
  0
LINE
  5
38A
330
1F
100
AcDbEntity
  8
ZUWAKU
  6
Continuous
 62
     7
370
    18
100
AcDbLine
 10
-200.0
 20
69.25
 30
0.0
 11
-205.0
 21
69.25
 31
0.0
  0
LINE
  5
38B
330
1F
100
AcDbEntity
  8
ZUWAKU
  6
Continuous
 62
     7
370
    18
100
AcDbLine
 10
-200.0
 20
34.62499999999999
 30
0.0
 11
-205.0
 21
34.62499999999999
 31
0.0
  0
LINE
  5
38C
330
1F
100
AcDbEntity
  8
ZUWAKU
  6
Continuous
 62
     7
370
    18
100
AcDbLine
 10
-200.0
 20
-34.62500000000001
 30
0.0
 11
-205.0
 21
-34.62500000000001
 31
0.0
  0
LINE
  5
38D
330
1F
100
AcDbEntity
  8
ZUWAKU
  6
Continuous
 62
     7
370
    18
100
AcDbLine
 10
-200.0
 20
-69.25
 30
0.0
 11
-205.0
 21
-69.25
 31
0.0
  0
LINE
  5
38E
330
1F
100
AcDbEntity
  8
ZUWAKU
  6
Continuous
 62
     7
370
    18
100
AcDbLine
 10
-200.0
 20
-0.0000000000000028
 30
0.0
 11
-210.0
 21
-0.0000000000000028
 31
0.0
  0
LINE
  5
38F
330
1F
100
AcDbEntity
  8
ZUWAKU
  6
CENTER
 62
     7
370
    18
100
AcDbLine
 10
156.016667
 20
-122.741667
 30
0.0
 11
197.175
 21
-122.741667
 31
0.0
  0
LINE
  5
390
330
1F
100
AcDbEntity
  8
ZUWAKU
  6
CENTER
 62
     7
370
    18
100
AcDbLine
 10
163.991667
 20
-115.775
 30
0.0
 11
163.991667
 21
-129.158333
 31
0.0
  0
TEXT
  5
391
330
1F
100
AcDbEntity
  8
ZUWAKU
 62
     3
100
AcDbText
 10
-184.333334
 20
139.5
 30
0.0
 40
3.0
  1
1
 41
1.269545454545457
  7
dcStyle0
 72
     5
 11
-182.338334
 21
139.5
 31
0.0
100
AcDbText
  0
TEXT
  5
392
330
1F
100
AcDbEntity
  8
ZUWAKU
 62
     3
100
AcDbText
 10
-151.0
 20
139.5
 30
0.0
 40
3.0
  1
2
 41
0.8214705882352961
  7
dcStyle0
 72
     5
 11
-149.005
 21
139.5
 31
0.0
100
AcDbText
  0
TEXT
  5
393
330
1F
100
AcDbEntity
  8
ZUWAKU
 62
     3
100
AcDbText
 10
-117.666664
 20
139.5
 30
0.0
 40
3.0
  1
3
 41
0.8214705882352961
  7
dcStyle0
 72
     5
 11
-115.671664
 21
139.5
 31
0.0
100
AcDbText
  0
TEXT
  5
394
330
1F
100
AcDbEntity
  8
ZUWAKU
 62
     3
100
AcDbText
 10
-84.33333600000002
 20
139.5
 30
0.0
 40
3.0
  1
4
 41
0.7758333333333352
  7
dcStyle0
 72
     5
 11
-82.33833600000001
 21
139.5
 31
0.0
100
AcDbText
  0
TEXT
  5
395
330
1F
100
AcDbEntity
  8
ZUWAKU
 62
     3
100
AcDbText
 10
-51.00000000000002
 20
139.5
 30
0.0
 40
3.0
  1
5
 41
0.8214705882352932
  7
dcStyle0
 72
     5
 11
-49.00500000000002
 21
139.5
 31
0.0
100
AcDbText
  0
TEXT
  5
396
330
1F
100
AcDbEntity
  8
ZUWAKU
 62
     3
100
AcDbText
 10
-17.66667200000002
 20
139.5
 30
0.0
 40
3.0
  1
6
 41
0.8214705882352946
  7
dcStyle0
 72
     5
 11
-15.67167200000002
 21
139.5
 31
0.0
100
AcDbText
  0
TEXT
  5
397
330
1F
100
AcDbEntity
  8
ZUWAKU
 62
     3
100
AcDbText
 10
15.66667199999999
 20
139.5
 30
0.0
 40
3.0
  1
7
 41
0.8214705882352938
  7
dcStyle0
 72
     5
 11
17.66167199999999
 21
139.5
 31
0.0
100
AcDbText
  0
TEXT
  5
398
330
1F
100
AcDbEntity
  8
ZUWAKU
 62
     3
100
AcDbText
 10
48.99999999999998
 20
139.5
 30
0.0
 40
3.0
  1
8
 41
0.8214705882352932
  7
dcStyle0
 72
     5
 11
50.99499999999998
 21
139.5
 31
0.0
100
AcDbText
  0
TEXT
  5
399
330
1F
100
AcDbEntity
  8
ZUWAKU
 62
     3
100
AcDbText
 10
82.333344
 20
139.5
 30
0.0
 40
3.0
  1
9
 41
0.872812500000002
  7
dcStyle0
 72
     5
 11
84.328344
 21
139.5
 31
0.0
100
AcDbText
  0
TEXT
  5
39A
330
1F
100
AcDbEntity
  8
ZUWAKU
 62
     3
100
AcDbText
 10
114.666656
 20
139.5
 30
0.0
 40
3.0
  1
10
 41
0.754864864864864
  7
dcStyle0
 72
     5
 11
118.656656
 21
139.5
 31
0.0
100
AcDbText
  0
TEXT
  5
39B
330
1F
100
AcDbEntity
  8
ZUWAKU
 62
     3
100
AcDbText
 10
148.0
 20
139.5
 30
0.0
 40
3.0
  1
11
 41
0.900967741935486
  7
dcStyle0
 72
     5
 11
151.99
 21
139.5
 31
0.0
100
AcDbText
  0
TEXT
  5
39C
330
1F
100
AcDbEntity
  8
ZUWAKU
 62
     3
100
AcDbText
 10
181.333344
 20
139.5
 30
0.0
 40
3.0
  1
12
 41
0.7548648648648667
  7
dcStyle0
 72
     5
 11
185.323344
 21
139.5
 31
0.0
100
AcDbText
  0
TEXT
  5
39D
330
1F
100
AcDbEntity
  8
ZUWAKU
 62
     3
100
AcDbText
 10
201.0
 20
119.6875
 30
0.0
 40
3.0
  1
A
 41
0.8214705882352961
  7
dcStyle0
 72
     5
 11
202.995
 21
119.6875
 31
0.0
100
AcDbText
  0
TEXT
  5
39E
330
1F
100
AcDbEntity
  8
ZUWAKU
 62
     3
100
AcDbText
 10
-184.333334
 20
-142.5
 30
0.0
 40
3.0
  1
1
 41
1.269545454545457
  7
dcStyle0
 72
     5
 11
-182.338334
 21
-142.5
 31
0.0
100
AcDbText
  0
TEXT
  5
39F
330
1F
100
AcDbEntity
  8
ZUWAKU
 62
     3
100
AcDbText
 10
-151.0
 20
-142.5
 30
0.0
 40
3.0
  1
2
 41
0.8214705882352961
  7
dcStyle0
 72
     5
 11
-149.005
 21
-142.5
 31
0.0
100
AcDbText
  0
TEXT
  5
3A0
330
1F
100
AcDbEntity
  8
ZUWAKU
 62
     3
100
AcDbText
 10
-117.666664
 20
-142.5
 30
0.0
 40
3.0
  1
3
 41
0.8214705882352961
  7
dcStyle0
 72
     5
 11
-115.671664
 21
-142.5
 31
0.0
100
AcDbText
  0
TEXT
  5
3A1
330
1F
100
AcDbEntity
  8
ZUWAKU
 62
     3
100
AcDbText
 10
-84.33333600000002
 20
-142.5
 30
0.0
 40
3.0
  1
4
 41
0.7758333333333352
  7
dcStyle0
 72
     5
 11
-82.33833600000001
 21
-142.5
 31
0.0
100
AcDbText
  0
TEXT
  5
3A2
330
1F
100
AcDbEntity
  8
ZUWAKU
 62
     3
100
AcDbText
 10
-51.00000000000002
 20
-142.5
 30
0.0
 40
3.0
  1
5
 41
0.8214705882352932
  7
dcStyle0
 72
     5
 11
-49.00500000000002
 21
-142.5
 31
0.0
100
AcDbText
  0
TEXT
  5
3A3
330
1F
100
AcDbEntity
  8
ZUWAKU
 62
     3
100
AcDbText
 10
-17.66667200000002
 20
-142.5
 30
0.0
 40
3.0
  1
6
 41
0.8214705882352946
  7
dcStyle0
 72
     5
 11
-15.67167200000002
 21
-142.5
 31
0.0
100
AcDbText
  0
TEXT
  5
3A4
330
1F
100
AcDbEntity
  8
ZUWAKU
 62
     3
100
AcDbText
 10
15.66667199999999
 20
-142.5
 30
0.0
 40
3.0
  1
7
 41
0.8214705882352938
  7
dcStyle0
 72
     5
 11
17.66167199999999
 21
-142.5
 31
0.0
100
AcDbText
  0
TEXT
  5
3A5
330
1F
100
AcDbEntity
  8
ZUWAKU
 62
     3
100
AcDbText
 10
48.99999999999998
 20
-142.5
 30
0.0
 40
3.0
  1
8
 41
0.8214705882352932
  7
dcStyle0
 72
     5
 11
50.99499999999998
 21
-142.5
 31
0.0
100
AcDbText
  0
TEXT
  5
3A6
330
1F
100
AcDbEntity
  8
ZUWAKU
 62
     3
100
AcDbText
 10
82.333344
 20
-142.5
 30
0.0
 40
3.0
  1
9
 41
0.872812500000002
  7
dcStyle0
 72
     5
 11
84.328344
 21
-142.5
 31
0.0
100
AcDbText
  0
TEXT
  5
3A7
330
1F
100
AcDbEntity
  8
ZUWAKU
 62
     3
100
AcDbText
 10
114.666656
 20
-142.5
 30
0.0
 40
3.0
  1
10
 41
0.754864864864864
  7
dcStyle0
 72
     5
 11
118.656656
 21
-142.5
 31
0.0
100
AcDbText
  0
TEXT
  5
3A8
330
1F
100
AcDbEntity
  8
ZUWAKU
 62
     3
100
AcDbText
 10
148.0
 20
-142.5
 30
0.0
 40
3.0
  1
11
 41
0.900967741935486
  7
dcStyle0
 72
     5
 11
151.99
 21
-142.5
 31
0.0
100
AcDbText
  0
TEXT
  5
3A9
330
1F
100
AcDbEntity
  8
ZUWAKU
 62
     3
100
AcDbText
 10
181.333344
 20
-142.5
 30
0.0
 40
3.0
  1
12
 41
0.7548648648648667
  7
dcStyle0
 72
     5
 11
185.323344
 21
-142.5
 31
0.0
100
AcDbText
  0
TEXT
  5
3AA
330
1F
100
AcDbEntity
  8
ZUWAKU
 62
     3
100
AcDbText
 10
201.0
 20
-122.6875
 30
0.0
 40
3.0
  1
H
 41
0.7758333333333352
  7
dcStyle0
 72
     5
 11
202.995
 21
-122.6875
 31
0.0
100
AcDbText
  0
TEXT
  5
3AB
330
1F
100
AcDbEntity
  8
ZUWAKU
 62
     3
100
AcDbText
 10
167.5
 20
-99.506168
 30
0.0
 40
4.0
  1
2025年-月-日
 41
0.6747540983606561
  7
dcStyle0
 72
     5
 11
191.02
 21
-99.506168
 31
0.0
100
AcDbText
  0
TEXT
  5
3AC
330
1F
100
AcDbEntity
  8
ZUWAKU
 62
     3
100
AcDbText
 10
145.1504043685629
 20
-125.0
 30
0.0
 40
4.0
  1
図法
 41
1.145454545454544
  7
dcStyle0
 72
     5
 11
152.3504043685629
 21
-125.0
 31
0.0
100
AcDbText
  0
TEXT
  5
3AD
330
1F
100
AcDbEntity
  8
ZUWAKU
 62
     3
100
AcDbText
 10
167.5000000000073
 20
-93.50616500000001
 30
0.0
 40
4.0
  1
2025年9月04日
 41
0.7003664921465975
  7
dcStyle0
 72
     5
 11
192.9800000000073
 21
-93.50616500000001
 31
0.0
100
AcDbText
  0
TEXT
  5
3AE
330
1F
100
AcDbEntity
  8
ZUWAKU
 62
     3
100
AcDbText
 10
-203.0
 20
-122.6875
 30
0.0
 40
3.0
  1
H
 41
0.7758333333333352
  7
dcStyle0
 72
     5
 11
-201.005
 21
-122.6875
 31
0.0
100
AcDbText
  0
TEXT
  5
3AF
330
1F
100
AcDbEntity
  8
ZUWAKU
 62
     3
100
AcDbText
 10
201.0
 20
-88.0625
 30
0.0
 40
3.0
  1
G
 41
0.7758333333333352
  7
dcStyle0
 72
     5
 11
202.995
 21
-88.0625
 31
0.0
100
AcDbText
  0
TEXT
  5
3B0
330
1F
100
AcDbEntity
  8
ZUWAKU
 62
     3
100
AcDbText
 10
201.0
 20
85.0625
 30
0.0
 40
3.0
  1
B
 41
0.7758333333333352
  7
dcStyle0
 72
     5
 11
202.995
 21
85.0625
 31
0.0
100
AcDbText
  0
TEXT
  5
3B1
330
1F
100
AcDbEntity
  8
ZUWAKU
 62
     3
100
AcDbText
 10
201.0
 20
50.43749999999999
 30
0.0
 40
3.0
  1
C
 41
0.7758333333333352
  7
dcStyle0
 72
     5
 11
202.995
 21
50.43749999999999
 31
0.0
100
AcDbText
  0
TEXT
  5
3B2
330
1F
100
AcDbEntity
  8
ZUWAKU
 62
     3
100
AcDbText
 10
201.0
 20
15.8125
 30
0.0
 40
3.0
  1
D
 41
0.7758333333333352
  7
dcStyle0
 72
     5
 11
202.995
 21
15.8125
 31
0.0
100
AcDbText
  0
TEXT
  5
3B3
330
1F
100
AcDbEntity
  8
ZUWAKU
 62
     3
100
AcDbText
 10
201.0
 20
-18.8125
 30
0.0
 40
3.0
  1
E
 41
0.8214705882352961
  7
dcStyle0
 72
     5
 11
202.995
 21
-18.8125
 31
0.0
100
AcDbText
  0
TEXT
  5
3B4
330
1F
100
AcDbEntity
  8
ZUWAKU
 62
     3
100
AcDbText
 10
201.0
 20
-53.43750000000001
 30
0.0
 40
3.0
  1
F
 41
0.8214705882352961
  7
dcStyle0
 72
     5
 11
202.995
 21
-53.43750000000001
 31
0.0
100
AcDbText
  0
TEXT
  5
3B5
330
1F
100
AcDbEntity
  8
ZUWAKU
 62
     3
100
AcDbText
 10
-203.0
 20
119.6875
 30
0.0
 40
3.0
  1
A
 41
0.8214705882352961
  7
dcStyle0
 72
     5
 11
-201.005
 21
119.6875
 31
0.0
100
AcDbText
  0
TEXT
  5
3B6
330
1F
100
AcDbEntity
  8
ZUWAKU
 62
     3
100
AcDbText
 10
-203.0
 20
85.0625
 30
0.0
 40
3.0
  1
B
 41
0.7758333333333352
  7
dcStyle0
 72
     5
 11
-201.005
 21
85.0625
 31
0.0
100
AcDbText
  0
TEXT
  5
3B7
330
1F
100
AcDbEntity
  8
ZUWAKU
 62
     3
100
AcDbText
 10
-203.0
 20
50.43749999999999
 30
0.0
 40
3.0
  1
C
 41
0.7758333333333352
  7
dcStyle0
 72
     5
 11
-201.005
 21
50.43749999999999
 31
0.0
100
AcDbText
  0
TEXT
  5
3B8
330
1F
100
AcDbEntity
  8
ZUWAKU
 62
     3
100
AcDbText
 10
-203.0
 20
15.8125
 30
0.0
 40
3.0
  1
D
 41
0.7758333333333352
  7
dcStyle0
 72
     5
 11
-201.005
 21
15.8125
 31
0.0
100
AcDbText
  0
TEXT
  5
3B9
330
1F
100
AcDbEntity
  8
ZUWAKU
 62
     3
100
AcDbText
 10
-203.0
 20
-18.8125
 30
0.0
 40
3.0
  1
E
 41
0.8214705882352961
  7
dcStyle0
 72
     5
 11
-201.005
 21
-18.8125
 31
0.0
100
AcDbText
  0
TEXT
  5
3BA
330
1F
100
AcDbEntity
  8
ZUWAKU
 62
     3
100
AcDbText
 10
-203.0
 20
-53.43750000000001
 30
0.0
 40
3.0
  1
F
 41
0.8214705882352961
  7
dcStyle0
 72
     5
 11
-201.005
 21
-53.43750000000001
 31
0.0
100
AcDbText
  0
TEXT
  5
3BB
330
1F
100
AcDbEntity
  8
ZUWAKU
 62
     3
100
AcDbText
 10
-203.0
 20
-88.0625
 30
0.0
 40
3.0
  1
G
 41
0.7758333333333352
  7
dcStyle0
 72
     5
 11
-201.005
 21
-88.0625
 31
0.0
100
AcDbText
  0
CIRCLE
  5
3BC
330
1F
100
AcDbEntity
  8
ZUWAKU
  6
Continuous
 62
     3
370
    18
100
AcDbCircle
 10
163.991667
 20
-122.741667
 30
0.0
 40
2.535374725755567
  0
CIRCLE
  5
3BD
330
1F
100
AcDbEntity
  8
ZUWAKU
  6
Continuous
 62
     3
370
    18
100
AcDbCircle
 10
163.991667
 20
-122.741667
 30
0.0
 40
5.95833333333337
  0
LINE
  5
3BE
330
1F
100
AcDbEntity
  8
ZUWAKU
  6
Continuous
 62
     3
370
    18
100
AcDbLine
 10
176.733333
 20
-120.206292
 30
0.0
 11
176.733333
 21
-125.277041
 31
0.0
  0
LINE
  5
3BF
330
1F
100
AcDbEntity
  8
ZUWAKU
  6
Continuous
 62
     3
370
    18
100
AcDbLine
 10
190.391667
 20
-116.783333
 30
0.0
 11
190.391667
 21
-128.7
 31
0.0
  0
LINE
  5
3C0
330
1F
100
AcDbEntity
  8
ZUWAKU
  6
Continuous
 62
     3
370
    18
100
AcDbLine
 10
176.733333
 20
-120.206292
 30
0.0
 11
190.391667
 21
-116.783333
 31
0.0
  0
LINE
  5
3C1
330
1F
100
AcDbEntity
  8
ZUWAKU
  6
Continuous
 62
     3
370
    18
100
AcDbLine
 10
176.733333
 20
-125.277041
 30
0.0
 11
190.391667
 21
-128.7
 31
0.0
  0
TEXT
  5
3C2
330
1F
100
AcDbEntity
  8
ZUWAKU
 62
     7
100
AcDbText
 10
130.2660209442288
 20
-103.308334
 30
0.0
 40
6.0
  1
SUZUKI
 41
0.4623853211009176
  7
dcStyle0
 72
     5
 11
144.6660209442288
 21
-103.308334
 31
0.0
100
AcDbText
  0
TEXT
  5
3C3
330
1F
100
AcDbEntity
  8
ZUWAKU
 62
     7
100
AcDbText
 10
175.633331
 20
-106.516666
 30
0.0
 40
6.0
  1
1：1
 41
0.7457142857142857
  7
dcStyle0
 72
     5
 11
186.073331
 21
-106.516666
 31
0.0
100
AcDbText
  0
TEXT
  5
3C4
330
1F
100
AcDbEntity
  8
ZUWAKU
 62
     7
100
AcDbText
 10
116.395054347837
 20
-126.133333
 30
0.0
 40
4.5
  1
SCS134A
 41
0.7083695652173911
  7
dcStyle0
 72
     5
 11
137.342554347837
 21
-126.133333
 31
0.0
100
AcDbText
  0
TEXT
  5
3C5
330
1F
100
AcDbEntity
  8
ZUWAKU
 62
     7
100
AcDbText
 10
113.9345917468206
 20
-136.95
 30
0.0
 40
6.0
  1
com-1709 HCJ3-50S304A
 41
0.672626146788991
  7
dcStyle0
 72
     5
 11
197.7245917468206
 21
-136.95
 31
0.0
100
AcDbText
  0
TEXT
  5
3C6
330
1F
100
AcDbEntity
  8
ZUWAKU
 62
     4
100
AcDbText
 10
113.3987384958033
 20
-113.8748703946914
 30
0.0
 40
4.5
  1
３．５Ｓクランプ
 41
0.953191489361702
  7
dcStyle0
 72
     5
 11
142.1987384958033
 21
-113.8748703946914
 31
0.0
100
AcDbText
  0
LINE
  5
3C7
330
1F
100
AcDbEntity
  8
ZUWAKU
  6
Continuous
 62
     3
370
    13
100
AcDbLine
 10
129.3198790475203
 20
132.1739358470646
 30
0.0
 11
198.4408297517456
 21
132.1739358470646
 31
0.0
  0
LINE
  5
3C8
330
1F
100
AcDbEntity
  8
ZUWAKU
  6
Continuous
 62
     3
370
    13
100
AcDbLine
 10
129.3198790475203
 20
134.1739358470646
 30
0.0
 11
198.4408297517456
 21
134.1739358470646
 31
0.0
  0
TEXT
  5
3C9
330
1F
100
AcDbEntity
  8
ZUWAKU
 62
     2
100
AcDbText
 10
131.3822288127784
 20
131.1606435935433
 30
0.0
 40
4.5
  1
( 
 41
0.8400000000000015
  7
dcStyle0
 72
     5
 11
137.6822288127784
 21
131.1606435935433
 31
0.0
100
AcDbText
  0
TEXT
  5
3CA
330
1F
100
AcDbEntity
  8
ZUWAKU
 62
     2
100
AcDbText
 10
173.8887090674116
 20
131.1606435935433
 30
0.0
 40
4.5
  1
(      )
 41
0.7839999999999996
  7
dcStyle0
 72
     5
 11
199.0887090674115
 21
131.1606435935433
 31
0.0
100
AcDbText
  0
TEXT
  5
3CB
330
1F
100
AcDbEntity
  8
ZUWAKU
 62
     2
100
AcDbText
 10
119.9484492409227
 20
123.5439080973931
 30
0.0
 40
3.5
  1
表面仕上げ　＃４００　トスル。
 41
0.9438202247191011
  7
dcStyle0
 72
     5
 11
161.9484492409227
 21
123.5439080973931
 31
0.0
100
AcDbText
  0
INSERT
  5
3CC
330
1F
100
AcDbEntity
  8
Layer0016
  6
Continuous
100
AcDbBlockReference
  2
DC_GROUP_COM-1709 HCJ3-50S304A_1
 10
0.0
 20
0.0
 30
0.0
  0
INSERT
  5
3CD
330
1F
100
AcDbEntity
  8
Layer0016
  6
Continuous
100
AcDbBlockReference
  2
DC_GROUP_COM-1709 HCJ3-50S304A_2
 10
0.0
 20
0.0
 30
0.0
  0
INSERT
  5
3CE
330
1F
100
AcDbEntity
  8
Layer0016
  6
Continuous
100
AcDbBlockReference
  2
DC_GROUP_COM-1709 HCJ3-50S304A_9
 10
0.0
 20
0.0
 30
0.0
  0
INSERT
  5
3CF
330
1F
100
AcDbEntity
  8
Layer0016
  6
Continuous
100
AcDbBlockReference
  2
DC_GROUP_COM-1709 HCJ3-50S304A_10
 10
0.0
 20
0.0
 30
0.0
  0
INSERT
  5
3D0
330
1F
100
AcDbEntity
  8
Layer0016
  6
Continuous
100
AcDbBlockReference
  2
DC_GROUP_COM-1709 HCJ3-50S304A_19
 10
0.0
 20
0.0
 30
0.0
  0
INSERT
  5
3D1
330
1F
100
AcDbEntity
  8
Layer0016
  6
Continuous
100
AcDbBlockReference
  2
DC_GROUP_COM-1709 HCJ3-50S304A_23
 10
0.0
 20
0.0
 30
0.0
  0
INSERT
  5
3D2
330
1F
100
AcDbEntity
  8
0
  6
Continuous
100
AcDbBlockReference
  2
DC_GROUP_COM-1709 HCJ3-50S304A_3
 10
0.0
 20
0.0
 30
0.0
  0
INSERT
  5
3D3
330
1F
100
AcDbEntity
  8
0
  6
Continuous
100
AcDbBlockReference
  2
DC_GROUP_COM-1709 HCJ3-50S304A_11
 10
0.0
 20
0.0
 30
0.0
  0
INSERT
  5
3D4
330
1F
100
AcDbEntity
  8
0
  6
Continuous
100
AcDbBlockReference
  2
DC_GROUP_COM-1709 HCJ3-50S304A_12
 10
0.0
 20
0.0
 30
0.0
  0
INSERT
  5
3D5
330
1F
100
AcDbEntity
  8
0
  6
Continuous
100
AcDbBlockReference
  2
DA_DIMGROUP_0
 10
0.0
 20
0.0
 30
0.0
  0
DIMENSION
  5
3D6
330
1F
100
AcDbEntity
  8
0
  6
Continuous
370
    13
100
AcDbDimension
280
     0
  2
*D14
 10
-117.1304347826087
 20
34.12905232598323
 30
0.0
 11
-122.6312671196598
 21
34.12905232598323
 31
0.0
 70
   160
 71
     8
 42
-1.0
 73
     0
 74
     0
 75
     0
  3
dc_Rotated
100
AcDbAlignedDimension
 13
-128.1320994567109
 23
49.49600478215466
 33
0.0
 14
-117.1304347826087
 24
49.49999999999999
 34
0.0
100
AcDbRotatedDimension
1001
ACAD
1000
DSTYLE
1002
{
1070
   144
1040
1.0
1070
   274
1070
     4
1070
    41
1040
3.000001907348633
1070
    79
1070
     2
1070
   343
1005
177
1070
   344
1005
177
1070
   176
1070
     2
1070
   177
1070
     2
1070
   178
1070
     4
1070
   271
1070
     2
1070
    44
1040
1.0
1070
    42
1040
1.0
1070
   147
1040
1.0
1070
   173
1070
     1
1070
    77
1070
     3
1070
    73
1070
     0
1070
   172
1070
     1
1070
    74
1070
     0
1070
   283
1070
     0
1070
   340
1005
17F
1070
   140
1040
4.5
1070
   284
1070
     8
1070
   288
1070
     1
1070
    78
1070
     8
1070
    90
1070
     1
1002
}
  0
DIMENSION
  5
3D8
330
1F
100
AcDbEntity
  8
0
  6
Continuous
370
    13
100
AcDbDimension
280
     0
  2
*D15
 10
-119.6304347826087
 20
70.86389714522703
 30
0.0
 11
-122.6304347826087
 21
70.86389714522703
 31
0.0
 70
   160
 71
     8
 42
-1.0
 73
     0
 74
     0
 75
     0
  3
dc_Rotated
100
AcDbAlignedDimension
 13
-125.6304347826087
 23
55.49999999999999
 33
0.0
 14
-119.6304347826087
 24
55.49999999999999
 34
0.0
100
AcDbRotatedDimension
1001
ACAD
1000
DSTYLE
1002
{
1070
   144
1040
1.0
1070
   274
1070
     4
1070
    41
1040
3.000001907348633
1070
    79
1070
     2
1070
   343
1005
177
1070
   344
1005
177
1070
   176
1070
     2
1070
   177
1070
     2
1070
   178
1070
     4
1070
   271
1070
     2
1070
    44
1040
1.0
1070
    42
1040
1.0
1070
   147
1040
1.0
1070
   173
1070
     1
1070
    77
1070
     3
1070
    73
1070
     0
1070
   172
1070
     1
1070
    74
1070
     0
1070
   283
1070
     0
1070
   340
1005
17F
1070
   140
1040
4.5
1070
   284
1070
     8
1070
   288
1070
     1
1070
    78
1070
     8
1070
    90
1070
     1
1002
}
  0
DIMENSION
  5
3D9
330
1F
100
AcDbEntity
  8
0
  6
Continuous
370
    13
100
AcDbDimension
280
     0
  2
*D16
 10
-82.42244418331377
 20
58.49999999999999
 30
0.0
 11
-82.42244418331377
 21
0.000000000000002
 31
0.0
 70
   160
  1
\W0.5952;φ<>
 71
     8
 42
-1.0
 73
     0
 74
     0
 75
     0
  3
dc_Rotated
100
AcDbAlignedDimension
 13
-116.1304347826087
 23
-58.50000000000001
 33
0.0
 14
-116.1304347826087
 24
58.49999999999999
 34
0.0
 50
90.0
100
AcDbRotatedDimension
1001
ACAD
1000
DSTYLE
1002
{
1070
   144
1040
1.0
1070
   274
1070
     4
1070
    41
1040
3.000001907348633
1070
    79
1070
     2
1070
   343
1005
177
1070
   344
1005
177
1070
   176
1070
     2
1070
   177
1070
     2
1070
   178
1070
     4
1070
   271
1070
     2
1070
    44
1040
1.0
1070
    42
1040
1.0
1070
   147
1040
1.0
1070
   173
1070
     1
1070
    77
1070
     3
1070
    73
1070
     0
1070
   172
1070
     1
1070
    74
1070
     0
1070
   283
1070
     0
1070
   340
1005
17F
1070
   140
1040
4.5
1070
   284
1070
     8
1070
   288
1070
     1
1070
    78
1070
     8
1070
    90
1070
     1
1002
}
  0
DIMENSION
  5
3DA
330
1F
100
AcDbEntity
  8
0
  6
Continuous
370
    13
100
AcDbDimension
280
     0
  2
*D17
 10
-89.92596944770861
 20
55.49999999999999
 30
0.0
 11
-89.92596944770861
 21
0.000000000000002
 31
0.0
 70
   160
  1
\W0.5952;φ<>
 71
     8
 42
-1.0
 73
     0
 74
     0
 75
     0
  3
dc_Rotated
100
AcDbAlignedDimension
 13
-120.2971014492754
 23
-55.50000000000001
 33
0.0
 14
-120.2971014492754
 24
55.49999999999999
 34
0.0
 50
90.0
100
AcDbRotatedDimension
1001
ACAD
1000
DSTYLE
1002
{
1070
   144
1040
1.0
1070
   274
1070
     4
1070
    41
1040
3.000001907348633
1070
    79
1070
     2
1070
   343
1005
177
1070
   344
1005
177
1070
   176
1070
     2
1070
   177
1070
     2
1070
   178
1070
     4
1070
   271
1070
     2
1070
    44
1040
1.0
1070
    42
1040
1.0
1070
   147
1040
1.0
1070
   173
1070
     1
1070
    77
1070
     3
1070
    73
1070
     0
1070
   172
1070
     1
1070
    74
1070
     0
1070
   283
1070
     0
1070
   340
1005
17F
1070
   140
1040
4.5
1070
   284
1070
     8
1070
   288
1070
     1
1070
    78
1070
     8
1070
    90
1070
     1
1002
}
  0
DIMENSION
  5
3DB
330
1F
100
AcDbEntity
  8
0
  6
Continuous
370
    13
100
AcDbDimension
280
     0
  2
*D18
 10
-97.01263219741485
 20
49.49999999999999
 30
0.0
 11
-97.01263219741485
 21
0.000000000000002
 31
0.0
 70
   160
  1
\W0.6250;φ<>
 71
     8
 42
-1.0
 73
     0
 74
     0
 75
     0
  3
dc_Rotated
100
AcDbAlignedDimension
 13
-115.6304347826087
 23
-49.50000000000001
 33
0.0
 14
-115.6304347826087
 24
49.49999999999999
 34
0.0
 50
90.0
100
AcDbRotatedDimension
1001
ACAD
1000
DSTYLE
1002
{
1070
   144
1040
1.0
1070
   274
1070
     4
1070
    41
1040
3.000001907348633
1070
    79
1070
     2
1070
   343
1005
177
1070
   344
1005
177
1070
   176
1070
     2
1070
   177
1070
     2
1070
   178
1070
     4
1070
   271
1070
     2
1070
    44
1040
1.0
1070
    42
1040
1.0
1070
   147
1040
1.0
1070
   173
1070
     1
1070
    77
1070
     3
1070
    73
1070
     0
1070
   172
1070
     1
1070
    74
1070
     0
1070
   283
1070
     0
1070
   340
1005
17F
1070
   140
1040
4.5
1070
   284
1070
     8
1070
   288
1070
     1
1070
    78
1070
     8
1070
    90
1070
     1
1002
}
  0
DIMENSION
  5
3DC
330
1F
100
AcDbEntity
  8
0
  6
Continuous
370
    13
100
AcDbDimension
280
     0
  2
*D19
 10
142.1304347826087
 20
-72.60723192019951
 30
0.0
 11
133.6304347826087
 21
-72.60723192019951
 31
0.0
 70
   160
 71
     8
 42
-1.0
 73
     0
 74
     0
 75
     0
  3
dc_Rotated
100
AcDbAlignedDimension
 13
125.1304347826087
 23
-56.50000000000001
 33
0.0
 14
142.1304347826087
 24
-56.50000000000001
 34
0.0
100
AcDbRotatedDimension
1001
ACAD
1000
DSTYLE
1002
{
1070
   144
1040
1.0
1070
   274
1070
     4
1070
    41
1040
3.000001907348633
1070
    79
1070
     2
1070
   343
1005
177
1070
   344
1005
177
1070
   176
1070
     2
1070
   177
1070
     2
1070
   178
1070
     4
1070
   271
1070
     2
1070
    44
1040
3.802992518703249
1070
    42
1040
1.0
1070
   147
1040
1.0
1070
   173
1070
     1
1070
    77
1070
     3
1070
    73
1070
     0
1070
   172
1070
     1
1070
    74
1070
     0
1070
   283
1070
     0
1070
   340
1005
17F
1070
   140
1040
4.5
1070
   284
1070
     8
1070
   288
1070
     1
1070
    78
1070
     8
1070
    90
1070
     1
1002
}
  0
DIMENSION
  5
3DD
330
1F
100
AcDbEntity
  8
0
  6
Continuous
370
    13
100
AcDbDimension
280
     0
  2
*D25
 10
-134.7145809082255
 20
58.49999999999999
 30
0.0
 11
-134.7145809082255
 21
53.99999999999999
 31
0.0
 70
   160
 71
     8
 42
-1.0
 73
     0
 74
     0
 75
     0
  3
dc_Rotated
100
AcDbAlignedDimension
 13
-129.6304347826087
 23
49.49999999999999
 33
0.0
 14
-129.1304347826087
 24
58.49999999999999
 34
0.0
 50
90.0
100
AcDbRotatedDimension
1001
ACAD
1000
DSTYLE
1002
{
1070
   144
1040
1.0
1070
   274
1070
     4
1070
    41
1040
3.000001907348633
1070
    79
1070
     2
1070
   343
1005
177
1070
   344
1005
177
1070
   176
1070
     2
1070
   177
1070
     2
1070
   178
1070
     4
1070
   271
1070
     2
1070
    44
1040
1.0
1070
    42
1040
1.0
1070
   147
1040
1.0
1070
   173
1070
     1
1070
    77
1070
     3
1070
    73
1070
     0
1070
   172
1070
     1
1070
    74
1070
     0
1070
   283
1070
     0
1070
   340
1005
17F
1070
   140
1040
4.5
1070
   284
1070
     8
1070
   288
1070
     1
1070
    78
1070
     8
1070
    90
1070
     1
1002
}
  0
INSERT
  5
3DE
330
1F
100
AcDbEntity
  8
0
  6
Continuous
100
AcDbBlockReference
  2
DC_GROUP_COM-1709 HCJ3-50S304A_18
 10
0.0
 20
0.0
 30
0.0
  0
INSERT
  5
3DF
330
1F
100
AcDbEntity
  8
0
  6
Continuous
100
AcDbBlockReference
  2
DC_GROUP_COM-1709 HCJ3-50S304A_20
 10
0.0
 20
0.0
 30
0.0
  0
DIMENSION
  5
3E0
330
1F
100
AcDbEntity
  8
0
  6
Continuous
370
    13
100
AcDbDimension
280
     0
  2
*D33
 10
86.47467410244055
 20
61.54961722701113
 30
0.0
 11
88.54538117314638
 21
41.15446652329411
 31
0.0
 70
   160
 71
     8
 42
-1.0
 73
     0
 74
     0
 75
     0
  3
dc_Rotated
100
AcDbAlignedDimension
 13
75.3480681595513
 23
19.20916315811728
 33
0.0
 14
74.2202808473795
 24
60.30543623864315
 34
0.0
 50
95.79733954083883
100
AcDbRotatedDimension
1001
ACAD
1000
DSTYLE
1002
{
1070
   144
1040
1.0
1070
   274
1070
     4
1070
    41
1040
3.000001907348633
1070
    79
1070
     2
1070
   343
1005
177
1070
   344
1005
177
1070
   176
1070
     2
1070
   177
1070
     2
1070
   178
1070
     4
1070
   271
1070
     2
1070
    44
1040
1.0
1070
    42
1040
1.0
1070
   147
1040
0.9999999999999851
1070
   173
1070
     1
1070
    77
1070
     3
1070
    73
1070
     0
1070
   172
1070
     1
1070
    74
1070
     0
1070
   283
1070
     0
1070
   340
1005
17F
1070
   140
1040
4.5
1070
   284
1070
     8
1070
   288
1070
     1
1070
    78
1070
     8
1070
    90
1070
     1
1002
}
  0
DIMENSION
  5
3E1
330
1F
100
AcDbEntity
  8
0
  6
Continuous
370
    13
100
AcDbDimension
280
     0
  2
*D34
 10
74.95562290340858
 20
72.86278358939249
 30
0.0
 11
60.03234190068881
 21
71.34763207424189
 31
0.0
 70
   160
 71
     8
 42
-1.0
 73
     0
 74
     0
 75
     0
  3
dc_Rotated
100
AcDbAlignedDimension
 13
46.56550984432268
 23
55.4873826099994
 33
0.0
 14
76.41207184976226
 24
58.51768564030058
 34
0.0
 50
5.797339540838809
100
AcDbRotatedDimension
1001
ACAD
1000
DSTYLE
1002
{
1070
   144
1040
1.0
1070
   274
1070
     4
1070
    41
1040
3.000001907348633
1070
    79
1070
     2
1070
   343
1005
177
1070
   344
1005
177
1070
   176
1070
     2
1070
   177
1070
     2
1070
   178
1070
     4
1070
   271
1070
     2
1070
    44
1040
1.0
1070
    42
1040
1.0
1070
   147
1040
1.000000000000028
1070
   173
1070
     1
1070
    77
1070
     3
1070
    73
1070
     0
1070
   172
1070
     1
1070
    74
1070
     0
1070
   283
1070
     0
1070
   340
1005
17F
1070
   140
1040
4.5
1070
   284
1070
     8
1070
   288
1070
     1
1070
    78
1070
     8
1070
    90
1070
     1
1002
}
  0
INSERT
  5
3E2
330
1F
100
AcDbEntity
  8
0
  6
Continuous
100
AcDbBlockReference
  2
DC_GROUP_COM-1709 HCJ3-50S304A_25
 10
0.0
 20
0.0
 30
0.0
  0
DIMENSION
  5
3E3
330
1F
100
AcDbEntity
  8
0
  6
Continuous
370
    13
100
AcDbDimension
280
     0
  2
*D38
 10
78.90159831203145
 20
-72.33169639478011
 30
0.0
 11
5.912563861898104
 21
-72.33169639478011
 31
0.0
 70
   160
  1
146
 71
     8
 42
-1.0
 73
     0
 74
     0
 75
     0
  3
dc_Rotated
100
AcDbAlignedDimension
 13
-67.07647058823524
 23
0.0
 33
0.0
 14
78.90159831203145
 24
-9.818053628645451
 34
0.0
100
AcDbRotatedDimension
1001
ACAD
1000
DSTYLE
1002
{
1070
   144
1040
1.0
1070
   274
1070
     4
1070
    41
1040
3.000001907348633
1070
    79
1070
     2
1070
   343
1005
177
1070
   344
1005
177
1070
   176
1070
     2
1070
   177
1070
     2
1070
   178
1070
     4
1070
   271
1070
     2
1070
    44
1040
1.0
1070
    42
1040
1.0
1070
   147
1040
1.0
1070
   173
1070
     1
1070
    77
1070
     3
1070
    73
1070
     0
1070
   172
1070
     1
1070
    74
1070
     0
1070
   283
1070
     0
1070
   340
1005
17F
1070
   140
1040
4.5
1070
   284
1070
     8
1070
   288
1070
     1
1070
    78
1070
     8
1070
    90
1070
     1
1002
}
  0
DIMENSION
  5
3E4
330
1F
100
AcDbEntity
  8
0
  6
Continuous
370
    13
100
AcDbDimension
280
     0
  2
*D39
 10
110.1097256857855
 20
58.51768564030058
 30
0.0
 11
110.1097256857855
 21
0.0088428201502941
 31
0.0
 70
   160
  1
117
 71
     8
 42
-1.0
 73
     0
 74
     0
 75
     0
  3
dc_Rotated
100
AcDbAlignedDimension
 13
-0.0000000000000024
 23
-58.5
 33
0.0
 14
76.41207184976223
 24
58.51768564030058
 34
0.0
 50
90.0
100
AcDbRotatedDimension
1001
ACAD
1000
DSTYLE
1002
{
1070
   144
1040
1.0
1070
   274
1070
     4
1070
    41
1040
3.000001907348633
1070
    79
1070
     2
1070
   343
1005
177
1070
   344
1005
177
1070
   176
1070
     2
1070
   177
1070
     2
1070
   178
1070
     4
1070
   271
1070
     2
1070
    44
1040
1.0
1070
    42
1040
1.0
1070
   147
1040
1.0
1070
   173
1070
     1
1070
    77
1070
     3
1070
    73
1070
     0
1070
   172
1070
     1
1070
    74
1070
     0
1070
   283
1070
     0
1070
   340
1005
17F
1070
   140
1040
4.5
1070
   284
1070
     8
1070
   288
1070
     1
1070
    78
1070
     8
1070
    90
1070
     1
1002
}
  0
INSERT
  5
3E5
330
1F
100
AcDbEntity
  8
0
  6
Continuous
100
AcDbBlockReference
  2
DC_GROUP_COM-1709 HCJ3-50S304A_28
 10
0.0
 20
0.0
 30
0.0
  0
INSERT
  5
3E6
330
1F
100
AcDbEntity
  8
ZUWAKU
  6
Continuous
100
AcDbBlockReference
  2
DC_GROUP_COM-1709 HCJ3-50S304A_13
 10
0.0
 20
0.0
 30
0.0
  0
INSERT
  5
3E7
330
1F
100
AcDbEntity
  8
ZUWAKU
  6
Continuous
100
AcDbBlockReference
  2
DC_GROUP_COM-1709 HCJ3-50S304A_14
 10
0.0
 20
0.0
 30
0.0
  0
INSERT
  5
3E8
330
1F
100
AcDbEntity
  8
ZUWAKU
  6
Continuous
100
AcDbBlockReference
  2
DC_GROUP_COM-1709 HCJ3-50S304A_15
 10
0.0
 20
0.0
 30
0.0
  0
INSERT
  5
3E9
330
1F
100
AcDbEntity
  8
ZUWAKU
  6
Continuous
100
AcDbBlockReference
  2
DC_GROUP_COM-1709 HCJ3-50S304A_16
 10
0.0
 20
0.0
 30
0.0
  0
INSERT
  5
3EA
330
1F
100
AcDbEntity
  8
ZUWAKU
  6
Continuous
100
AcDbBlockReference
  2
DC_GROUP_COM-1709 HCJ3-50S304A_17
 10
0.0
 20
0.0
 30
0.0
  0
VIEWPORT
  5
B3
330
1B
100
AcDbEntity
 67
     1
  8
0
100
AcDbViewport
 10
-20.25
 20
-65.5
 30
0.0
 40
1381.5
 41
1284.0
 68
     1
 69
     1
 12
-20.25
 22
-65.5
 13
0.0
 23
0.0
 14
0.5
 24
0.5
 15
0.0
 25
0.0
 16
0.0
 26
0.0
 36
1.0
 17
0.0
 27
0.0
 37
0.0
 42
50.0
 43
0.0
 44
0.0
 45
1284.0
 50
0.0
 51
0.0
 72
   100
 90
   557152
  1

281
     0
 71
     1
 74
     0
110
0.0
120
0.0
130
0.0
111
1.0
121
0.0
131
0.0
112
0.0
122
1.0
132
0.0
 79
     0
146
0.0
170
     0
 61
     5
348
2F
292
     1
282
     1
141
0.0
142
0.0
 63
   256
  0
ENDSEC
  0
SECTION
  2
OBJECTS
  0
DICTIONARY
  5
C
330
0
100
AcDbDictionary
281
     1
  3
ACAD_DETAILVIEWSTYLE
350
422
  3
ACAD_GROUP
350
D
  3
ACAD_LAYOUT
350
1A
  3
ACAD_MATERIAL
350
43
  3
ACAD_MLEADERSTYLE
350
6B
  3
ACAD_MLINESTYLE
350
17
  3
ACAD_PLOTSETTINGS
350
19
  3
ACAD_PLOTSTYLENAME
350
E
  3
ACAD_SCALELIST
350
47
  3
ACAD_SECTIONVIEWSTYLE
350
423
  3
ACAD_TABLESTYLE
350
69
  3
ACAD_VISUALSTYLE
350
2A
  3
ACDB_RECOMPOSE_DATA
350
41F
  3
AcDbVariableDictionary
350
3EB
  0
SUN
  5
6D
330
29
100
AcDbSun
 90
        1
290
     0
 63
     7
421
 16777215
 40
1.0
291
     1
 91
  2455826
 92
 54000000
292
     0
 70
     2
 71
   256
280
     1
  0
DICTIONARY
  5
422
102
{ACAD_REACTORS
330
C
102
}
330
C
100
AcDbDictionary
281
     1
  0
DICTIONARY
  5
D
102
{ACAD_REACTORS
330
C
102
}
330
C
100
AcDbDictionary
281
     1
  0
DICTIONARY
  5
1A
102
{ACAD_REACTORS
330
C
102
}
330
C
100
AcDbDictionary
281
     1
  3
Layout1
350
1E
  3
Layout2
350
26
  3
Model
350
22
  0
DICTIONARY
  5
43
102
{ACAD_REACTORS
330
C
102
}
330
C
100
AcDbDictionary
281
     1
  3
ByBlock
350
45
  3
ByLayer
350
44
  3
Global
350
46
  0
DICTIONARY
  5
6B
102
{ACAD_REACTORS
330
C
102
}
330
C
100
AcDbDictionary
281
     1
  3
Standard
350
6C
  0
DICTIONARY
  5
17
102
{ACAD_REACTORS
330
C
102
}
330
C
100
AcDbDictionary
281
     1
  3
Standard
350
18
  0
DICTIONARY
  5
19
102
{ACAD_REACTORS
330
C
102
}
330
C
100
AcDbDictionary
281
     1
  0
ACDBDICTIONARYWDFLT
  5
E
102
{ACAD_REACTORS
330
C
102
}
330
C
100
AcDbDictionary
281
     1
  3
Normal
350
F
100
AcDbDictionaryWithDefault
340
F
  0
DICTIONARY
  5
47
102
{ACAD_REACTORS
330
C
102
}
330
C
100
AcDbDictionary
281
     1
  3
A0
350
48
  3
A1
350
49
  3
A2
350
4A
  3
A3
350
4B
  3
A4
350
4C
  3
A5
350
4D
  3
A6
350
4E
  3
A7
350
4F
  3
A8
350
50
  3
A9
350
51
  3
B0
350
52
  3
B1
350
53
  3
B2
350
54
  3
B3
350
55
  3
B4
350
56
  3
B5
350
57
  3
B6
350
58
  3
B7
350
59
  3
B8
350
5A
  3
B9
350
5B
  3
C0
350
5C
  3
C1
350
5D
  3
C2
350
5E
  3
C3
350
5F
  3
C4
350
60
  3
C5
350
61
  3
C6
350
62
  3
C7
350
63
  3
C8
350
64
  3
C9
350
65
  3
D0
350
66
  3
D1
350
67
  3
D2
350
68
  0
DICTIONARY
  5
423
102
{ACAD_REACTORS
330
C
102
}
330
C
100
AcDbDictionary
281
     1
  0
DICTIONARY
  5
69
102
{ACAD_REACTORS
330
C
102
}
330
C
100
AcDbDictionary
281
     1
  3
Standard
350
6A
  0
DICTIONARY
  5
2A
102
{ACAD_REACTORS
330
C
102
}
330
C
100
AcDbDictionary
281
     1
  3
2dWireframe
350
2F
  3
Basic
350
32
  3
Brighten
350
36
  3
ColorChange
350
3A
  3
Conceptual
350
34
  3
Dim
350
35
  3
EdgeColorOff
350
3D
  3
Facepattern
350
39
  3
Flat
350
2B
  3
FlatWithEdges
350
2C
  3
Gouraud
350
2D
  3
GouraudWithEdges
350
2E
  3
Hidden
350
31
  3
JitterOff
350
3B
  3
Linepattern
350
38
  3
OverhangOff
350
3C
  3
Realistic
350
33
  3
Shaded
350
42
  3
Shaded with edges
350
41
  3
Shades of Gray
350
3E
  3
Sketchy
350
3F
  3
Thicken
350
37
  3
Wireframe
350
30
  3
X-Ray
350
40
  0
XRECORD
  5
41F
102
{ACAD_REACTORS
330
C
102
}
330
C
100
AcDbXrecord
280
     1
 90
        1
330
6A
  0
DICTIONARY
  5
3EB
102
{ACAD_REACTORS
330
C
102
}
330
C
100
AcDbDictionary
281
     1
  3
CANNOSCALE
350
3EC
  3
CMLEADERSTYLE
350
421
  3
CTABLESTYLE
350
420
  0
LAYOUT
  5
1E
102
{ACAD_REACTORS
330
1A
102
}
330
1A
100
AcDbPlotSettings
  1

  2
none_device
  4

  6

 40
0.0
 41
0.0
 42
0.0
 43
0.0
 44
0.0
 45
0.0
 46
0.0
 47
0.0
 48
0.0
 49
0.0
140
0.0
141
0.0
142
1.0
143
1.0
 70
   688
 72
     0
 73
     0
 74
     5
  7

 75
    16
 76
     0
 77
     2
 78
   300
147
1.0
148
0.0
149
0.0
100
AcDbLayout
  1
Layout1
 70
     0
 71
     1
 10
0.0
 20
0.0
 11
12.0
 21
9.0
 12
0.0
 22
0.0
 32
0.0
 14
1.000000000000000E+20
 24
1.000000000000000E+20
 34
1.000000000000000E+20
 15
-1.000000000000000E+20
 25
-1.000000000000000E+20
 35
-1.000000000000000E+20
146
0.0
 13
0.0
 23
0.0
 33
0.0
 16
1.0
 26
0.0
 36
0.0
 17
0.0
 27
1.0
 37
0.0
 76
     0
330
1B
331
B3
  0
LAYOUT
  5
26
102
{ACAD_REACTORS
330
1A
102
}
330
1A
100
AcDbPlotSettings
  1

  2
none_device
  4

  6

 40
0.0
 41
0.0
 42
0.0
 43
0.0
 44
0.0
 45
0.0
 46
0.0
 47
0.0
 48
0.0
 49
0.0
140
0.0
141
0.0
142
1.0
143
1.0
 70
   688
 72
     0
 73
     0
 74
     5
  7

 75
    16
 76
     0
 77
     2
 78
   300
147
1.0
148
0.0
149
0.0
100
AcDbLayout
  1
Layout2
 70
     1
 71
     2
 10
0.0
 20
0.0
 11
0.0
 21
0.0
 12
0.0
 22
0.0
 32
0.0
 14
0.0
 24
0.0
 34
0.0
 15
0.0
 25
0.0
 35
0.0
146
0.0
 13
0.0
 23
0.0
 33
0.0
 16
1.0
 26
0.0
 36
0.0
 17
0.0
 27
1.0
 37
0.0
 76
     0
330
23
  0
LAYOUT
  5
22
102
{ACAD_REACTORS
330
1A
102
}
330
1A
100
AcDbPlotSettings
  1

  2
DWG to PDF.pc3
  4
ISO_A3_(297.00_x_420.00_MM)
  6

 40
5.0
 41
17.0
 42
5.0
 43
17.0
 44
297.0
 45
420.0
 46
0.0
 47
0.0
 48
0.0
 49
0.0
140
0.0
141
0.0
142
1.0
143
1.0
 70
  1712
 72
     1
 73
     1
 74
     1
  7

 75
    16
 76
     0
 77
     2
 78
   300
147
1.0
148
0.0
149
0.0
100
AcDbLayout
  1
Model
 70
     1
 71
     0
 10
-210.0
 20
-148.5
 11
210.0
 21
148.5
 12
0.0
 22
0.0
 32
0.0
 14
-711.0
 24
-707.5
 34
0.0
 15
670.5
 25
576.5
 35
0.0
146
0.0
 13
0.0
 23
0.0
 33
0.0
 16
1.0
 26
0.0
 36
0.0
 17
0.0
 27
1.0
 37
0.0
 76
     0
330
1F
331
29
  0
MATERIAL
  5
45
102
{ACAD_REACTORS
330
43
102
}
330
43
100
AcDbMaterial
  1
ByBlock
 72
     1
 94
      127
  0
MATERIAL
  5
44
102
{ACAD_REACTORS
330
43
102
}
330
43
100
AcDbMaterial
  1
ByLayer
 72
     1
 94
      127
  0
MATERIAL
  5
46
102
{ACAD_REACTORS
330
43
102
}
330
43
100
AcDbMaterial
  1
Global
 72
     1
 94
      127
  0
MLEADERSTYLE
  5
6C
102
{ACAD_REACTORS
330
6B
102
}
330
6B
100
AcDbMLeaderStyle
179
     2
170
     2
171
     1
172
     0
 90
        2
 40
0.0
 41
0.0
173
     1
 91
-1056964608
340
14
 92
       -2
290
     1
 42
0.09
291
     1
 43
0.36
  3
Standard
341
0
 44
0.18
300

342
11
174
     1
178
     6
175
     1
176
     0
 93
-1056964608
 45
0.18
292
     0
297
     0
 46
0.18
343
0
 94
-1056964608
 47
1.0
 49
1.0
140
1.0
293
     1
141
0.0
294
     1
177
     0
142
1.0
295
     0
296
     0
143
0.125
271
     0
272
     9
273
     9
  0
MLINESTYLE
  5
18
102
{ACAD_REACTORS
330
17
102
}
330
17
100
AcDbMlineStyle
  2
Standard
 70
     0
  3

 62
   256
 51
90.0
 52
90.0
 71
     2
 49
0.5
 62
   256
  6
BYLAYER
 49
-0.5
 62
   256
  6
BYLAYER
  0
ACDBPLACEHOLDER
  5
F
102
{ACAD_REACTORS
330
E
102
}
330
E
  0
SCALE
  5
48
102
{ACAD_REACTORS
330
47
102
}
330
47
100
AcDbScale
 70
     0
300
1:1
140
1.0
141
1.0
290
     1
  0
SCALE
  5
49
102
{ACAD_REACTORS
330
47
102
}
330
47
100
AcDbScale
 70
     0
300
1:2
140
1.0
141
2.0
290
     0
  0
SCALE
  5
4A
102
{ACAD_REACTORS
330
47
102
}
330
47
100
AcDbScale
 70
     0
300
1:4
140
1.0
141
4.0
290
     0
  0
SCALE
  5
4B
102
{ACAD_REACTORS
330
47
102
}
330
47
100
AcDbScale
 70
     0
300
1:5
140
1.0
141
5.0
290
     0
  0
SCALE
  5
4C
102
{ACAD_REACTORS
330
47
102
}
330
47
100
AcDbScale
 70
     0
300
1:8
140
1.0
141
8.0
290
     0
  0
SCALE
  5
4D
102
{ACAD_REACTORS
330
47
102
}
330
47
100
AcDbScale
 70
     0
300
1:10
140
1.0
141
10.0
290
     0
  0
SCALE
  5
4E
102
{ACAD_REACTORS
330
47
102
}
330
47
100
AcDbScale
 70
     0
300
1:16
140
1.0
141
16.0
290
     0
  0
SCALE
  5
4F
102
{ACAD_REACTORS
330
47
102
}
330
47
100
AcDbScale
 70
     0
300
1:20
140
1.0
141
20.0
290
     0
  0
SCALE
  5
50
102
{ACAD_REACTORS
330
47
102
}
330
47
100
AcDbScale
 70
     0
300
1:30
140
1.0
141
30.0
290
     0
  0
SCALE
  5
51
102
{ACAD_REACTORS
330
47
102
}
330
47
100
AcDbScale
 70
     0
300
1:40
140
1.0
141
40.0
290
     0
  0
SCALE
  5
52
102
{ACAD_REACTORS
330
47
102
}
330
47
100
AcDbScale
 70
     0
300
1:50
140
1.0
141
50.0
290
     0
  0
SCALE
  5
53
102
{ACAD_REACTORS
330
47
102
}
330
47
100
AcDbScale
 70
     0
300
1:100
140
1.0
141
100.0
290
     0
  0
SCALE
  5
54
102
{ACAD_REACTORS
330
47
102
}
330
47
100
AcDbScale
 70
     0
300
2:1
140
2.0
141
1.0
290
     0
  0
SCALE
  5
55
102
{ACAD_REACTORS
330
47
102
}
330
47
100
AcDbScale
 70
     0
300
4:1
140
4.0
141
1.0
290
     0
  0
SCALE
  5
56
102
{ACAD_REACTORS
330
47
102
}
330
47
100
AcDbScale
 70
     0
300
8:1
140
8.0
141
1.0
290
     0
  0
SCALE
  5
57
102
{ACAD_REACTORS
330
47
102
}
330
47
100
AcDbScale
 70
     0
300
10:1
140
10.0
141
1.0
290
     0
  0
SCALE
  5
58
102
{ACAD_REACTORS
330
47
102
}
330
47
100
AcDbScale
 70
     0
300
100:1
140
100.0
141
1.0
290
     0
  0
SCALE
  5
59
102
{ACAD_REACTORS
330
47
102
}
330
47
100
AcDbScale
 70
     0
300
1/128" = 1'-0"
140
0.0078125
141
12.0
290
     0
  0
SCALE
  5
5A
102
{ACAD_REACTORS
330
47
102
}
330
47
100
AcDbScale
 70
     0
300
1/64" = 1'-0"
140
0.015625
141
12.0
290
     0
  0
SCALE
  5
5B
102
{ACAD_REACTORS
330
47
102
}
330
47
100
AcDbScale
 70
     0
300
1/32" = 1'-0"
140
0.03125
141
12.0
290
     0
  0
SCALE
  5
5C
102
{ACAD_REACTORS
330
47
102
}
330
47
100
AcDbScale
 70
     0
300
1/16" = 1'-0"
140
0.0625
141
12.0
290
     0
  0
SCALE
  5
5D
102
{ACAD_REACTORS
330
47
102
}
330
47
100
AcDbScale
 70
     0
300
3/32" = 1'-0"
140
0.09375
141
12.0
290
     0
  0
SCALE
  5
5E
102
{ACAD_REACTORS
330
47
102
}
330
47
100
AcDbScale
 70
     0
300
1/8" = 1'-0"
140
0.125
141
12.0
290
     0
  0
SCALE
  5
5F
102
{ACAD_REACTORS
330
47
102
}
330
47
100
AcDbScale
 70
     0
300
3/16" = 1'-0"
140
0.1875
141
12.0
290
     0
  0
SCALE
  5
60
102
{ACAD_REACTORS
330
47
102
}
330
47
100
AcDbScale
 70
     0
300
1/4" = 1'-0"
140
0.25
141
12.0
290
     0
  0
SCALE
  5
61
102
{ACAD_REACTORS
330
47
102
}
330
47
100
AcDbScale
 70
     0
300
3/8" = 1'-0"
140
0.375
141
12.0
290
     0
  0
SCALE
  5
62
102
{ACAD_REACTORS
330
47
102
}
330
47
100
AcDbScale
 70
     0
300
1/2" = 1'-0"
140
0.5
141
12.0
290
     0
  0
SCALE
  5
63
102
{ACAD_REACTORS
330
47
102
}
330
47
100
AcDbScale
 70
     0
300
3/4" = 1'-0"
140
0.75
141
12.0
290
     0
  0
SCALE
  5
64
102
{ACAD_REACTORS
330
47
102
}
330
47
100
AcDbScale
 70
     0
300
1" = 1'-0"
140
1.0
141
12.0
290
     0
  0
SCALE
  5
65
102
{ACAD_REACTORS
330
47
102
}
330
47
100
AcDbScale
 70
     0
300
1-1/2" = 1'-0"
140
1.5
141
12.0
290
     0
  0
SCALE
  5
66
102
{ACAD_REACTORS
330
47
102
}
330
47
100
AcDbScale
 70
     0
300
3" = 1'-0"
140
3.0
141
12.0
290
     0
  0
SCALE
  5
67
102
{ACAD_REACTORS
330
47
102
}
330
47
100
AcDbScale
 70
     0
300
6" = 1'-0"
140
6.0
141
12.0
290
     0
  0
SCALE
  5
68
102
{ACAD_REACTORS
330
47
102
}
330
47
100
AcDbScale
 70
     0
300
1'-0" = 1'-0"
140
12.0
141
12.0
290
     0
  0
TABLESTYLE
  5
6A
102
{ACAD_REACTORS
330
69
102
}
102
{ACAD_XDICTIONARY
360
41D
102
}
330
69
100
AcDbTableStyle
  3
Standard
 70
     0
 71
     0
 40
0.06
 41
0.06
280
     0
281
     0
  7
Standard
140
0.18
170
     2
 62
     0
 63
   257
283
     0
 90
        4
 91
        0
  1

274
    -2
284
     1
 64
     0
275
    -2
285
     1
 65
     0
276
    -2
286
     1
 66
     0
277
    -2
287
     1
 67
     0
278
    -2
288
     1
 68
     0
279
    -2
289
     1
 69
     0
  7
Standard
140
0.25
170
     5
 62
     0
 63
   257
283
     0
 90
        4
 91
        0
  1

274
    -2
284
     1
 64
     0
275
    -2
285
     1
 65
     0
276
    -2
286
     1
 66
     0
277
    -2
287
     1
 67
     0
278
    -2
288
     1
 68
     0
279
    -2
289
     1
 69
     0
  7
Standard
140
0.18
170
     5
 62
     0
 63
   257
283
     0
 90
        4
 91
        0
  1

274
    -2
284
     1
 64
     0
275
    -2
285
     1
 65
     0
276
    -2
286
     1
 66
     0
277
    -2
287
     1
 67
     0
278
    -2
288
     1
 68
     0
279
    -2
289
     1
 69
     0
  0
VISUALSTYLE
  5
2F
102
{ACAD_REACTORS
330
2A
102
}
102
{ACAD_XDICTIONARY
360
3F5
102
}
330
2A
100
AcDbVisualStyle
  2
2dWireframe
 70
     4
177
     2
291
     0
 71
     0
176
     1
 72
     2
176
     1
 73
     0
176
     1
 90
        0
176
     1
 40
0.6
176
     1
 41
30.0
176
     1
 62
     5
 63
     7
421
 16777215
176
     1
 74
     1
176
     1
 91
        4
176
     1
 64
     7
176
     1
 65
   257
176
     1
 75
     1
176
     1
175
     1
176
     1
 42
1.0
176
     1
 92
        0
176
     1
 66
   257
176
     1
 43
1.0
176
     1
 76
     1
176
     1
 77
     6
176
     1
 78
     2
176
     1
 67
     7
176
     1
 79
     5
176
     1
170
     0
176
     1
171
     0
176
     1
290
     0
176
     1
 93
        1
176
     1
 44
0.0
176
     1
173
     0
176
     1
  0
VISUALSTYLE
  5
32
102
{ACAD_REACTORS
330
2A
102
}
102
{ACAD_XDICTIONARY
360
3FB
102
}
330
2A
100
AcDbVisualStyle
  2
Basic
 70
     7
177
     2
291
     1
 71
     1
176
     1
 72
     0
176
     1
 73
     1
176
     1
 90
        0
176
     1
 40
0.6
176
     1
 41
30.0
176
     1
 62
     5
 63
     7
421
 16777215
176
     1
 74
     0
176
     1
 91
        4
176
     1
 64
     7
176
     1
 65
   257
176
     1
 75
     1
176
     1
175
     1
176
     1
 42
1.0
176
     1
 92
        8
176
     1
 66
     7
176
     1
 43
1.0
176
     1
 76
     1
176
     1
 77
     6
176
     1
 78
     2
176
     1
 67
     7
176
     1
 79
     5
176
     1
170
     0
176
     1
171
     0
176
     1
290
     0
176
     1
 93
        1
176
     1
 44
0.0
176
     1
173
     0
176
     1
  0
VISUALSTYLE
  5
36
102
{ACAD_REACTORS
330
2A
102
}
102
{ACAD_XDICTIONARY
360
403
102
}
330
2A
100
AcDbVisualStyle
  2
Brighten
 70
    12
177
     2
291
     1
 71
     2
176
     1
 72
     2
176
     1
 73
     0
176
     1
 90
        0
176
     1
 40
0.6
176
     1
 41
30.0
176
     1
 62
     5
 63
     7
421
 16777215
176
     1
 74
     1
176
     1
 91
        4
176
     1
 64
     7
176
     1
 65
   257
176
     1
 75
     1
176
     1
175
     1
176
     1
 42
1.0
176
     1
 92
        8
176
     1
 66
     7
176
     1
 43
1.0
176
     1
 76
     1
176
     1
 77
     6
176
     1
 78
     2
176
     1
 67
     7
176
     1
 79
     5
176
     1
170
     0
176
     1
171
     0
176
     1
290
     0
176
     1
 93
        1
176
     1
 44
50.0
176
     1
173
     0
176
     1
  0
VISUALSTYLE
  5
3A
102
{ACAD_REACTORS
330
2A
102
}
102
{ACAD_XDICTIONARY
360
40B
102
}
330
2A
100
AcDbVisualStyle
  2
ColorChange
 70
    16
177
     2
291
     1
 71
     2
176
     1
 72
     2
176
     1
 73
     3
176
     1
 90
        0
176
     1
 40
0.6
176
     1
 41
30.0
176
     1
 62
     5
 63
     8
421
  8421504
176
     1
 74
     1
176
     1
 91
        4
176
     1
 64
     7
176
     1
 65
   257
176
     1
 75
     1
176
     1
175
     1
176
     1
 42
1.0
176
     1
 92
        8
176
     1
 66
     8
424
  8421504
176
     1
 43
1.0
176
     1
 76
     1
176
     1
 77
     6
176
     1
 78
     2
176
     1
 67
     7
176
     1
 79
     5
176
     1
170
     0
176
     1
171
     0
176
     1
290
     0
176
     1
 93
        1
176
     1
 44
0.0
176
     1
173
     0
176
     1
  0
VISUALSTYLE
  5
34
102
{ACAD_REACTORS
330
2A
102
}
102
{ACAD_XDICTIONARY
360
3FF
102
}
330
2A
100
AcDbVisualStyle
  2
Conceptual
 70
     9
177
     2
291
     0
 71
     3
176
     1
 72
     2
176
     1
 73
     0
176
     1
 90
        0
176
     1
 40
0.6
176
     1
 41
30.0
176
     1
 62
     5
 63
     7
421
 16777215
176
     1
 74
     2
176
     1
 91
        2
176
     1
 64
     7
176
     1
 65
   257
176
     1
 75
     1
176
     1
175
     1
176
     1
 42
179.0
176
     1
 92
        8
176
     1
 66
     7
176
     1
 43
1.0
176
     1
 76
     1
176
     1
 77
     6
176
     1
 78
     2
176
     1
 67
     7
176
     1
 79
     3
176
     1
170
     0
176
     1
171
     0
176
     1
290
     0
176
     1
 93
        1
176
     1
 44
0.0
176
     1
173
     0
176
     1
  0
VISUALSTYLE
  5
35
102
{ACAD_REACTORS
330
2A
102
}
102
{ACAD_XDICTIONARY
360
401
102
}
330
2A
100
AcDbVisualStyle
  2
Dim
 70
    11
177
     2
291
     1
 71
     2
176
     1
 72
     2
176
     1
 73
     0
176
     1
 90
        0
176
     1
 40
0.6
176
     1
 41
30.0
176
     1
 62
     5
 63
     7
421
 16777215
176
     1
 74
     1
176
     1
 91
        4
176
     1
 64
     7
176
     1
 65
   257
176
     1
 75
     1
176
     1
175
     1
176
     1
 42
1.0
176
     1
 92
        8
176
     1
 66
     7
176
     1
 43
1.0
176
     1
 76
     1
176
     1
 77
     6
176
     1
 78
     2
176
     1
 67
     7
176
     1
 79
     5
176
     1
170
     0
176
     1
171
     0
176
     1
290
     0
176
     1
 93
        1
176
     1
 44
-50.0
176
     1
173
     0
176
     1
  0
VISUALSTYLE
  5
3D
102
{ACAD_REACTORS
330
2A
102
}
102
{ACAD_XDICTIONARY
360
411
102
}
330
2A
100
AcDbVisualStyle
  2
EdgeColorOff
 70
    22
177
     2
291
     1
 71
     2
176
     0
 72
     2
176
     0
 73
     0
176
     0
 90
        0
176
     0
 40
0.6
176
     0
 41
30.0
176
     0
 62
     5
 63
     7
421
 16777215
176
     0
 74
     1
176
     0
 91
        4
176
     0
 64
     7
176
     0
 65
   257
176
     0
 75
     1
176
     0
175
     1
176
     0
 42
1.0
176
     0
 92
        8
176
     2
 66
     7
176
     0
 43
1.0
176
     0
 76
     1
176
     0
 77
     6
176
     0
 78
     2
176
     0
 67
     7
176
     0
 79
     5
176
     0
170
     0
176
     0
171
     0
176
     0
290
     0
176
     0
 93
        1
176
     0
 44
0.0
176
     0
173
     0
176
     0
  0
VISUALSTYLE
  5
39
102
{ACAD_REACTORS
330
2A
102
}
102
{ACAD_XDICTIONARY
360
409
102
}
330
2A
100
AcDbVisualStyle
  2
Facepattern
 70
    15
177
     2
291
     1
 71
     2
176
     1
 72
     2
176
     1
 73
     0
176
     1
 90
        0
176
     1
 40
0.6
176
     1
 41
30.0
176
     1
 62
     5
 63
     7
421
 16777215
176
     1
 74
     1
176
     1
 91
        4
176
     1
 64
     7
176
     1
 65
   257
176
     1
 75
     1
176
     1
175
     1
176
     1
 42
1.0
176
     1
 92
        8
176
     1
 66
     7
176
     1
 43
1.0
176
     1
 76
     1
176
     1
 77
     6
176
     1
 78
     2
176
     1
 67
     7
176
     1
 79
     5
176
     1
170
     0
176
     1
171
     0
176
     1
290
     0
176
     1
 93
        1
176
     1
 44
0.0
176
     1
173
     0
176
     1
  0
VISUALSTYLE
  5
2B
102
{ACAD_REACTORS
330
2A
102
}
102
{ACAD_XDICTIONARY
360
3ED
102
}
330
2A
100
AcDbVisualStyle
  2
Flat
 70
     0
177
     2
291
     1
 71
     2
176
     1
 72
     1
176
     1
 73
     1
176
     1
 90
        2
176
     1
 40
0.6
176
     1
 41
30.0
176
     1
 62
     5
 63
     7
421
 16777215
176
     1
 74
     0
176
     1
 91
        0
176
     1
 64
     7
176
     1
 65
   257
176
     1
 75
     1
176
     1
175
     1
176
     1
 42
1.0
176
     1
 92
        8
176
     1
 66
     7
176
     1
 43
1.0
176
     1
 76
     1
176
     1
 77
     6
176
     1
 78
     2
176
     1
 67
     7
176
     1
 79
     5
176
     1
170
     0
176
     1
171
     0
176
     1
290
     0
176
     1
 93
       13
176
     1
 44
0.0
176
     1
173
     0
176
     1
  0
VISUALSTYLE
  5
2C
102
{ACAD_REACTORS
330
2A
102
}
102
{ACAD_XDICTIONARY
360
3EF
102
}
330
2A
100
AcDbVisualStyle
  2
FlatWithEdges
 70
     1
177
     2
291
     1
 71
     2
176
     1
 72
     1
176
     1
 73
     1
176
     1
 90
        2
176
     1
 40
0.6
176
     1
 41
30.0
176
     1
 62
     5
 63
     7
421
 16777215
176
     1
 74
     1
176
     1
 91
        0
176
     1
 64
     7
176
     1
 65
   257
176
     1
 75
     1
176
     1
175
     1
176
     1
 42
1.0
176
     1
 92
        0
176
     1
 66
   257
176
     1
 43
1.0
176
     1
 76
     1
176
     1
 77
     6
176
     1
 78
     2
176
     1
 67
     7
176
     1
 79
     5
176
     1
170
     0
176
     1
171
     0
176
     1
290
     0
176
     1
 93
       13
176
     1
 44
0.0
176
     1
173
     0
176
     1
  0
VISUALSTYLE
  5
2D
102
{ACAD_REACTORS
330
2A
102
}
102
{ACAD_XDICTIONARY
360
3F1
102
}
330
2A
100
AcDbVisualStyle
  2
Gouraud
 70
     2
177
     2
291
     1
 71
     2
176
     1
 72
     2
176
     1
 73
     1
176
     1
 90
        2
176
     1
 40
0.6
176
     1
 41
30.0
176
     1
 62
     5
 63
     7
421
 16777215
176
     1
 74
     0
176
     1
 91
        0
176
     1
 64
     7
176
     1
 65
   257
176
     1
 75
     1
176
     1
175
     1
176
     1
 42
1.0
176
     1
 92
        0
176
     1
 66
     7
176
     1
 43
1.0
176
     1
 76
     1
176
     1
 77
     6
176
     1
 78
     2
176
     1
 67
     7
176
     1
 79
     5
176
     1
170
     0
176
     1
171
     0
176
     1
290
     0
176
     1
 93
       13
176
     1
 44
0.0
176
     1
173
     0
176
     1
  0
VISUALSTYLE
  5
2E
102
{ACAD_REACTORS
330
2A
102
}
102
{ACAD_XDICTIONARY
360
3F3
102
}
330
2A
100
AcDbVisualStyle
  2
GouraudWithEdges
 70
     3
177
     2
291
     1
 71
     2
176
     1
 72
     2
176
     1
 73
     1
176
     1
 90
        2
176
     1
 40
0.6
176
     1
 41
30.0
176
     1
 62
     5
 63
     7
421
 16777215
176
     1
 74
     1
176
     1
 91
        0
176
     1
 64
     7
176
     1
 65
   257
176
     1
 75
     1
176
     1
175
     1
176
     1
 42
1.0
176
     1
 92
        0
176
     1
 66
   257
176
     1
 43
1.0
176
     1
 76
     1
176
     1
 77
     6
176
     1
 78
     2
176
     1
 67
     7
176
     1
 79
     5
176
     1
170
     0
176
     1
171
     0
176
     1
290
     0
176
     1
 93
       13
176
     1
 44
0.0
176
     1
173
     0
176
     1
  0
VISUALSTYLE
  5
31
102
{ACAD_REACTORS
330
2A
102
}
102
{ACAD_XDICTIONARY
360
3F9
102
}
330
2A
100
AcDbVisualStyle
  2
Hidden
 70
     6
177
     2
291
     0
 71
     1
176
     1
 72
     2
176
     1
 73
     2
176
     1
 90
        0
176
     1
 40
0.6
176
     1
 41
30.0
176
     1
 62
     5
 63
     7
421
 16777215
176
     1
 74
     2
176
     1
 91
        2
176
     1
 64
     7
176
     1
 65
   257
176
     1
 75
     2
176
     1
175
     1
176
     1
 42
40.0
176
     1
 92
        0
176
     1
 66
   257
176
     1
 43
1.0
176
     1
 76
     1
176
     1
 77
     6
176
     1
 78
     2
176
     1
 67
     7
176
     1
 79
     3
176
     1
170
     0
176
     1
171
     0
176
     1
290
     0
176
     1
 93
        1
176
     1
 44
0.0
176
     1
173
     0
176
     1
  0
VISUALSTYLE
  5
3B
102
{ACAD_REACTORS
330
2A
102
}
102
{ACAD_XDICTIONARY
360
40D
102
}
330
2A
100
AcDbVisualStyle
  2
JitterOff
 70
    20
177
     2
291
     1
 71
     2
176
     0
 72
     2
176
     0
 73
     0
176
     0
 90
        0
176
     0
 40
0.6
176
     0
 41
30.0
176
     0
 62
     5
 63
     7
421
 16777215
176
     0
 74
     1
176
     0
 91
        4
176
     0
 64
     7
176
     0
 65
   257
176
     0
 75
     1
176
     0
175
     1
176
     0
 42
1.0
176
     0
 92
       10
176
     2
 66
     7
176
     0
 43
1.0
176
     0
 76
     1
176
     0
 77
     6
176
     0
 78
     2
176
     0
 67
     7
176
     0
 79
     5
176
     0
170
     0
176
     0
171
     0
176
     0
290
     0
176
     0
 93
        1
176
     0
 44
0.0
176
     0
173
     0
176
     0
  0
VISUALSTYLE
  5
38
102
{ACAD_REACTORS
330
2A
102
}
102
{ACAD_XDICTIONARY
360
407
102
}
330
2A
100
AcDbVisualStyle
  2
Linepattern
 70
    14
177
     2
291
     1
 71
     2
176
     1
 72
     2
176
     1
 73
     0
176
     1
 90
        0
176
     1
 40
0.6
176
     1
 41
30.0
176
     1
 62
     5
 63
     7
421
 16777215
176
     1
 74
     1
176
     1
 91
        4
176
     1
 64
     7
176
     1
 65
   257
176
     1
 75
     7
176
     1
175
     7
176
     1
 42
1.0
176
     1
 92
        8
176
     1
 66
     7
176
     1
 43
1.0
176
     1
 76
     1
176
     1
 77
     6
176
     1
 78
     2
176
     1
 67
     7
176
     1
 79
     5
176
     1
170
     0
176
     1
171
     0
176
     1
290
     0
176
     1
 93
        1
176
     1
 44
0.0
176
     1
173
     0
176
     1
  0
VISUALSTYLE
  5
3C
102
{ACAD_REACTORS
330
2A
102
}
102
{ACAD_XDICTIONARY
360
40F
102
}
330
2A
100
AcDbVisualStyle
  2
OverhangOff
 70
    21
177
     2
291
     1
 71
     2
176
     0
 72
     2
176
     0
 73
     0
176
     0
 90
        0
176
     0
 40
0.6
176
     0
 41
30.0
176
     0
 62
     5
 63
     7
421
 16777215
176
     0
 74
     1
176
     0
 91
        4
176
     0
 64
     7
176
     0
 65
   257
176
     0
 75
     1
176
     0
175
     1
176
     0
 42
1.0
176
     0
 92
        9
176
     2
 66
     7
176
     0
 43
1.0
176
     0
 76
     1
176
     0
 77
     6
176
     0
 78
     2
176
     0
 67
     7
176
     0
 79
     5
176
     0
170
     0
176
     0
171
     0
176
     0
290
     0
176
     0
 93
        1
176
     0
 44
0.0
176
     0
173
     0
176
     0
  0
VISUALSTYLE
  5
33
102
{ACAD_REACTORS
330
2A
102
}
102
{ACAD_XDICTIONARY
360
3FD
102
}
330
2A
100
AcDbVisualStyle
  2
Realistic
 70
     8
177
     2
291
     0
 71
     2
176
     1
 72
     3
176
     1
 73
     0
176
     1
 90
        2
176
     1
 40
0.6
176
     1
 41
30.0
176
     1
 62
     5
 63
     7
421
 16777215
176
     1
 74
     0
176
     1
 91
        0
176
     1
 64
     7
176
     1
 65
   257
176
     1
 75
     1
176
     1
175
     1
176
     1
 42
1.0
176
     1
 92
        8
176
     1
 66
   257
176
     1
 43
1.0
176
     1
 76
     1
176
     1
 77
     6
176
     1
 78
     2
176
     1
 67
     7
176
     1
 79
     3
176
     1
170
     0
176
     1
171
     0
176
     1
290
     0
176
     1
 93
       13
176
     1
 44
0.0
176
     1
173
     0
176
     1
  0
VISUALSTYLE
  5
42
102
{ACAD_REACTORS
330
2A
102
}
102
{ACAD_XDICTIONARY
360
41B
102
}
330
2A
100
AcDbVisualStyle
  2
Shaded
 70
    27
177
     2
291
     0
 71
     2
176
     1
 72
     2
176
     1
 73
     1
176
     1
 90
        2
176
     1
 40
0.6
176
     1
 41
30.0
176
     1
 62
     5
 63
     7
421
 16777215
176
     1
 74
     0
176
     1
 91
        4
176
     1
 64
     7
176
     1
 65
   257
176
     1
 75
     1
176
     1
175
     1
176
     1
 42
1.0
176
     1
 92
        8
176
     1
 66
   257
176
     1
 43
1.0
176
     1
 76
     1
176
     1
 77
     6
176
     1
 78
     2
176
     1
 67
     8
425
  7895160
176
     1
 79
     3
176
     1
170
     0
176
     1
171
     0
176
     1
290
     0
176
     1
 93
        5
176
     1
 44
0.0
176
     1
173
     0
176
     1
  0
VISUALSTYLE
  5
41
102
{ACAD_REACTORS
330
2A
102
}
102
{ACAD_XDICTIONARY
360
419
102
}
330
2A
100
AcDbVisualStyle
  2
Shaded with edges
 70
    26
177
     2
291
     0
 71
     2
176
     1
 72
     2
176
     1
 73
     1
176
     1
 90
        2
176
     1
 40
0.6
176
     1
 41
30.0
176
     1
 62
     5
 63
     7
421
 16777215
176
     1
 74
     1
176
     1
 91
       10
176
     1
 64
     7
176
     1
 65
   257
176
     1
 75
     2
176
     1
175
     1
176
     1
 42
1.0
176
     1
 92
        8
176
     1
 66
   257
176
     1
 43
1.0
176
     1
 76
     1
176
     1
 77
     6
176
     1
 78
     2
176
     1
 67
     7
176
     1
 79
     3
176
     1
170
     0
176
     1
171
     0
176
     1
290
     0
176
     1
 93
        5
176
     1
 44
0.0
176
     1
173
     0
176
     1
  0
VISUALSTYLE
  5
3E
102
{ACAD_REACTORS
330
2A
102
}
102
{ACAD_XDICTIONARY
360
413
102
}
330
2A
100
AcDbVisualStyle
  2
Shades of Gray
 70
    23
177
     2
291
     0
 71
     2
176
     1
 72
     2
176
     1
 73
     3
176
     1
 90
        0
176
     1
 40
0.6
176
     1
 41
30.0
176
     1
 62
     5
 63
     7
421
 16777215
176
     1
 74
     2
176
     1
 91
        2
176
     1
 64
     7
176
     1
 65
     7
176
     1
 75
     1
176
     1
175
     1
176
     1
 42
40.0
176
     1
 92
        8
176
     1
 66
     7
176
     1
 43
1.0
176
     1
 76
     1
176
     1
 77
     6
176
     1
 78
     2
176
     1
 67
     7
176
     1
 79
     3
176
     1
170
     0
176
     1
171
     0
176
     1
290
     0
176
     1
 93
        1
176
     1
 44
0.0
176
     1
173
     0
176
     1
  0
VISUALSTYLE
  5
3F
102
{ACAD_REACTORS
330
2A
102
}
102
{ACAD_XDICTIONARY
360
415
102
}
330
2A
100
AcDbVisualStyle
  2
Sketchy
 70
    24
177
     2
291
     0
 71
     1
176
     1
 72
     2
176
     1
 73
     2
176
     1
 90
        0
176
     1
 40
0.6
176
     1
 41
30.0
176
     1
 62
     5
 63
     7
421
 16777215
176
     1
 74
     2
176
     1
 91
        2
176
     1
 64
     7
176
     1
 65
     7
176
     1
 75
     1
176
     1
175
     1
176
     1
 42
40.0
176
     1
 92
       11
176
     1
 66
     7
176
     1
 43
1.0
176
     1
 76
     1
176
     1
 77
     6
176
     1
 78
     2
176
     1
 67
     7
176
     1
 79
     6
176
     1
170
     0
176
     1
171
     0
176
     1
290
     0
176
     1
 93
        1
176
     1
 44
0.0
176
     1
173
     0
176
     1
  0
VISUALSTYLE
  5
37
102
{ACAD_REACTORS
330
2A
102
}
102
{ACAD_XDICTIONARY
360
405
102
}
330
2A
100
AcDbVisualStyle
  2
Thicken
 70
    13
177
     2
291
     1
 71
     2
176
     1
 72
     2
176
     1
 73
     0
176
     1
 90
        0
176
     1
 40
0.6
176
     1
 41
30.0
176
     1
 62
     5
 63
     7
421
 16777215
176
     1
 74
     1
176
     1
 91
        4
176
     1
 64
     7
176
     1
 65
   257
176
     1
 75
     1
176
     1
175
     1
176
     1
 42
1.0
176
     1
 92
       12
176
     1
 66
     7
176
     1
 43
1.0
176
     1
 76
     1
176
     1
 77
     6
176
     1
 78
     2
176
     1
 67
     7
176
     1
 79
     5
176
     1
170
     0
176
     1
171
     0
176
     1
290
     0
176
     1
 93
        1
176
     1
 44
0.0
176
     1
173
     0
176
     1
  0
VISUALSTYLE
  5
30
102
{ACAD_REACTORS
330
2A
102
}
102
{ACAD_XDICTIONARY
360
3F7
102
}
330
2A
100
AcDbVisualStyle
  2
Wireframe
 70
     5
177
     2
291
     0
 71
     0
176
     1
 72
     2
176
     1
 73
     0
176
     1
 90
        0
176
     1
 40
0.6
176
     1
 41
30.0
176
     1
 62
     5
 63
     7
421
 16777215
176
     1
 74
     1
176
     1
 91
        4
176
     1
 64
     7
176
     1
 65
   257
176
     1
 75
     1
176
     1
175
     1
176
     1
 42
1.0
176
     1
 92
        0
176
     1
 66
   257
176
     1
 43
1.0
176
     1
 76
     1
176
     1
 77
     6
176
     1
 78
     2
176
     1
 67
     7
176
     1
 79
     3
176
     1
170
     0
176
     1
171
     0
176
     1
290
     0
176
     1
 93
        1
176
     1
 44
0.0
176
     1
173
     0
176
     1
  0
VISUALSTYLE
  5
40
102
{ACAD_REACTORS
330
2A
102
}
102
{ACAD_XDICTIONARY
360
417
102
}
330
2A
100
AcDbVisualStyle
  2
X-Ray
 70
    25
177
     2
291
     0
 71
     2
176
     1
 72
     2
176
     1
 73
     1
176
     1
 90
        1
176
     1
 40
0.5
176
     1
 41
30.0
176
     1
 62
     5
 63
     7
421
 16777215
176
     1
 74
     1
176
     1
 91
        0
176
     1
 64
     7
176
     1
 65
   257
176
     1
 75
     1
176
     1
175
     1
176
     1
 42
1.0
176
     1
 92
        8
176
     1
 66
     7
176
     1
 43
1.0
176
     1
 76
     1
176
     1
 77
     6
176
     1
 78
     2
176
     1
 67
     7
176
     1
 79
     3
176
     1
170
     0
176
     1
171
     0
176
     1
290
     0
176
     1
 93
       13
176
     1
 44
0.0
176
     1
173
     0
176
     1
  0
DICTIONARYVAR
  5
3EC
102
{ACAD_REACTORS
330
3EB
102
}
330
3EB
100
DictionaryVariables
280
     0
  1
1:1
  0
DICTIONARYVAR
  5
421
102
{ACAD_REACTORS
330
3EB
102
}
330
3EB
100
DictionaryVariables
280
     0
  1
Standard
  0
DICTIONARYVAR
  5
420
102
{ACAD_REACTORS
330
3EB
102
}
330
3EB
100
DictionaryVariables
280
     0
  1
Standard
  0
DICTIONARY
  5
41D
330
6A
100
AcDbDictionary
280
     1
281
     1
  3
ACAD_ROUNDTRIP_2008_TABLESTYLE_CELLSTYLEMAP
360
41E
  0
DICTIONARY
  5
3F5
330
2F
100
AcDbDictionary
280
     1
281
     1
  3
ACAD_XREC_ROUNDTRIP
360
3F6
  0
DICTIONARY
  5
3FB
330
32
100
AcDbDictionary
280
     1
281
     1
  3
ACAD_XREC_ROUNDTRIP
360
3FC
  0
DICTIONARY
  5
403
330
36
100
AcDbDictionary
280
     1
281
     1
  3
ACAD_XREC_ROUNDTRIP
360
404
  0
DICTIONARY
  5
40B
330
3A
100
AcDbDictionary
280
     1
281
     1
  3
ACAD_XREC_ROUNDTRIP
360
40C
  0
DICTIONARY
  5
3FF
330
34
100
AcDbDictionary
280
     1
281
     1
  3
ACAD_XREC_ROUNDTRIP
360
400
  0
DICTIONARY
  5
401
330
35
100
AcDbDictionary
280
     1
281
     1
  3
ACAD_XREC_ROUNDTRIP
360
402
  0
DICTIONARY
  5
411
330
3D
100
AcDbDictionary
280
     1
281
     1
  3
ACAD_XREC_ROUNDTRIP
360
412
  0
DICTIONARY
  5
409
330
39
100
AcDbDictionary
280
     1
281
     1
  3
ACAD_XREC_ROUNDTRIP
360
40A
  0
DICTIONARY
  5
3ED
330
2B
100
AcDbDictionary
280
     1
281
     1
  3
ACAD_XREC_ROUNDTRIP
360
3EE
  0
DICTIONARY
  5
3EF
330
2C
100
AcDbDictionary
280
     1
281
     1
  3
ACAD_XREC_ROUNDTRIP
360
3F0
  0
DICTIONARY
  5
3F1
330
2D
100
AcDbDictionary
280
     1
281
     1
  3
ACAD_XREC_ROUNDTRIP
360
3F2
  0
DICTIONARY
  5
3F3
330
2E
100
AcDbDictionary
280
     1
281
     1
  3
ACAD_XREC_ROUNDTRIP
360
3F4
  0
DICTIONARY
  5
3F9
330
31
100
AcDbDictionary
280
     1
281
     1
  3
ACAD_XREC_ROUNDTRIP
360
3FA
  0
DICTIONARY
  5
40D
330
3B
100
AcDbDictionary
280
     1
281
     1
  3
ACAD_XREC_ROUNDTRIP
360
40E
  0
DICTIONARY
  5
407
330
38
100
AcDbDictionary
280
     1
281
     1
  3
ACAD_XREC_ROUNDTRIP
360
408
  0
DICTIONARY
  5
40F
330
3C
100
AcDbDictionary
280
     1
281
     1
  3
ACAD_XREC_ROUNDTRIP
360
410
  0
DICTIONARY
  5
3FD
330
33
100
AcDbDictionary
280
     1
281
     1
  3
ACAD_XREC_ROUNDTRIP
360
3FE
  0
DICTIONARY
  5
41B
330
42
100
AcDbDictionary
280
     1
281
     1
  3
ACAD_XREC_ROUNDTRIP
360
41C
  0
DICTIONARY
  5
419
330
41
100
AcDbDictionary
280
     1
281
     1
  3
ACAD_XREC_ROUNDTRIP
360
41A
  0
DICTIONARY
  5
413
330
3E
100
AcDbDictionary
280
     1
281
     1
  3
ACAD_XREC_ROUNDTRIP
360
414
  0
DICTIONARY
  5
415
330
3F
100
AcDbDictionary
280
     1
281
     1
  3
ACAD_XREC_ROUNDTRIP
360
416
  0
DICTIONARY
  5
405
330
37
100
AcDbDictionary
280
     1
281
     1
  3
ACAD_XREC_ROUNDTRIP
360
406
  0
DICTIONARY
  5
3F7
330
30
100
AcDbDictionary
280
     1
281
     1
  3
ACAD_XREC_ROUNDTRIP
360
3F8
  0
DICTIONARY
  5
417
330
40
100
AcDbDictionary
280
     1
281
     1
  3
ACAD_XREC_ROUNDTRIP
360
418
  0
CELLSTYLEMAP
  5
41E
102
{ACAD_REACTORS
330
41D
102
}
330
41D
100
AcDbCellStyleMap
 90
        3
300
CELLSTYLE
  1
TABLEFORMAT_BEGIN
 90
        5
170
     1
 91
        0
 92
    32768
 62
   257
 93
        1
300
CONTENTFORMAT
  1
CONTENTFORMAT_BEGIN
 90
        0
 91
        0
 92
        4
 93
        0
300

 40
0.0
140
1.0
 94
        5
 62
     0
340
11
144
0.25
309
CONTENTFORMAT_END
171
     1
301
MARGIN
  1
CELLMARGIN_BEGIN
 40
0.06
 40
0.06
 40
0.06
 40
0.06
 40
0.06
 40
0.06
309
CELLMARGIN_END
 94
        6
 95
        1
302
GRIDFORMAT
  1
GRIDFORMAT_BEGIN
 90
        0
 91
        1
 62
     0
 92
       -2
340
14
 93
        0
 40
0.045
309
GRIDFORMAT_END
 95
        2
302
GRIDFORMAT
  1
GRIDFORMAT_BEGIN
 90
        0
 91
        1
 62
     0
 92
       -2
340
14
 93
        0
 40
0.045
309
GRIDFORMAT_END
 95
        4
302
GRIDFORMAT
  1
GRIDFORMAT_BEGIN
 90
        0
 91
        1
 62
     0
 92
       -2
340
14
 93
        0
 40
0.045
309
GRIDFORMAT_END
 95
        8
302
GRIDFORMAT
  1
GRIDFORMAT_BEGIN
 90
        0
 91
        1
 62
     0
 92
       -2
340
14
 93
        0
 40
0.045
309
GRIDFORMAT_END
 95
       16
302
GRIDFORMAT
  1
GRIDFORMAT_BEGIN
 90
        0
 91
        1
 62
     0
 92
       -2
340
14
 93
        0
 40
0.045
309
GRIDFORMAT_END
 95
       32
302
GRIDFORMAT
  1
GRIDFORMAT_BEGIN
 90
        0
 91
        1
 62
     0
 92
       -2
340
14
 93
        0
 40
0.045
309
GRIDFORMAT_END
309
TABLEFORMAT_END
  1
CELLSTYLE_BEGIN
 90
        1
 91
        1
300
_TITLE
309
CELLSTYLE_END
300
CELLSTYLE
  1
TABLEFORMAT_BEGIN
 90
        5
170
     1
 91
        0
 92
        0
 62
   257
 93
        1
300
CONTENTFORMAT
  1
CONTENTFORMAT_BEGIN
 90
        0
 91
        0
 92
        4
 93
        0
300

 40
0.0
140
1.0
 94
        5
 62
     0
340
11
144
0.18
309
CONTENTFORMAT_END
171
     1
301
MARGIN
  1
CELLMARGIN_BEGIN
 40
0.06
 40
0.06
 40
0.06
 40
0.06
 40
0.06
 40
0.06
309
CELLMARGIN_END
 94
        6
 95
        1
302
GRIDFORMAT
  1
GRIDFORMAT_BEGIN
 90
        0
 91
        1
 62
     0
 92
       -2
340
14
 93
        0
 40
0.045
309
GRIDFORMAT_END
 95
        2
302
GRIDFORMAT
  1
GRIDFORMAT_BEGIN
 90
        0
 91
        1
 62
     0
 92
       -2
340
14
 93
        0
 40
0.045
309
GRIDFORMAT_END
 95
        4
302
GRIDFORMAT
  1
GRIDFORMAT_BEGIN
 90
        0
 91
        1
 62
     0
 92
       -2
340
14
 93
        0
 40
0.045
309
GRIDFORMAT_END
 95
        8
302
GRIDFORMAT
  1
GRIDFORMAT_BEGIN
 90
        0
 91
        1
 62
     0
 92
       -2
340
14
 93
        0
 40
0.045
309
GRIDFORMAT_END
 95
       16
302
GRIDFORMAT
  1
GRIDFORMAT_BEGIN
 90
        0
 91
        1
 62
     0
 92
       -2
340
14
 93
        0
 40
0.045
309
GRIDFORMAT_END
 95
       32
302
GRIDFORMAT
  1
GRIDFORMAT_BEGIN
 90
        0
 91
        1
 62
     0
 92
       -2
340
14
 93
        0
 40
0.045
309
GRIDFORMAT_END
309
TABLEFORMAT_END
  1
CELLSTYLE_BEGIN
 90
        2
 91
        1
300
_HEADER
309
CELLSTYLE_END
300
CELLSTYLE
  1
TABLEFORMAT_BEGIN
 90
        5
170
     1
 91
        0
 92
        0
 62
   257
 93
        1
300
CONTENTFORMAT
  1
CONTENTFORMAT_BEGIN
 90
        0
 91
        0
 92
        4
 93
        0
300

 40
0.0
140
1.0
 94
        2
 62
     0
340
11
144
0.18
309
CONTENTFORMAT_END
171
     1
301
MARGIN
  1
CELLMARGIN_BEGIN
 40
0.06
 40
0.06
 40
0.06
 40
0.06
 40
0.06
 40
0.06
309
CELLMARGIN_END
 94
        6
 95
        1
302
GRIDFORMAT
  1
GRIDFORMAT_BEGIN
 90
        0
 91
        1
 62
     0
 92
       -2
340
14
 93
        0
 40
0.045
309
GRIDFORMAT_END
 95
        2
302
GRIDFORMAT
  1
GRIDFORMAT_BEGIN
 90
        0
 91
        1
 62
     0
 92
       -2
340
14
 93
        0
 40
0.045
309
GRIDFORMAT_END
 95
        4
302
GRIDFORMAT
  1
GRIDFORMAT_BEGIN
 90
        0
 91
        1
 62
     0
 92
       -2
340
14
 93
        0
 40
0.045
309
GRIDFORMAT_END
 95
        8
302
GRIDFORMAT
  1
GRIDFORMAT_BEGIN
 90
        0
 91
        1
 62
     0
 92
       -2
340
14
 93
        0
 40
0.045
309
GRIDFORMAT_END
 95
       16
302
GRIDFORMAT
  1
GRIDFORMAT_BEGIN
 90
        0
 91
        1
 62
     0
 92
       -2
340
14
 93
        0
 40
0.045
309
GRIDFORMAT_END
 95
       32
302
GRIDFORMAT
  1
GRIDFORMAT_BEGIN
 90
        0
 91
        1
 62
     0
 92
       -2
340
14
 93
        0
 40
0.045
309
GRIDFORMAT_END
309
TABLEFORMAT_END
  1
CELLSTYLE_BEGIN
 90
        3
 91
        2
300
_DATA
309
CELLSTYLE_END
  0
XRECORD
  5
3F6
102
{ACAD_REACTORS
330
3F5
102
}
330
3F5
100
AcDbXrecord
280
     1
102
RTVSPost2010Prop28
280
     1
102
RTVSPost2010PropOp28
 70
     1
102
RTVSPost2010Prop29
280
     1
102
RTVSPost2010PropOp29
 70
     1
102
RTVSPost2010Prop30
280
     0
102
RTVSPost2010PropOp30
 70
     1
102
RTVSPost2010Prop31
280
     0
102
RTVSPost2010PropOp31
 70
     1
102
RTVSPost2010Prop32
280
     0
102
RTVSPost2010PropOp32
 70
     1
102
RTVSPost2010Prop33
280
     0
102
RTVSPost2010PropOp33
 70
     1
102
RTVSPost2010Prop34
280
     0
102
RTVSPost2010PropOp34
 70
     1
102
RTVSPost2010Prop35
280
     0
102
RTVSPost2010PropOp35
 70
     1
102
RTVSPost2010Prop36
280
     0
102
RTVSPost2010PropOp36
 70
     1
102
RTVSPost2010Prop37
 90
       50
102
RTVSPost2010PropOp37
 70
     1
102
RTVSPost2010Prop38
140
0.0
102
RTVSPost2010PropOp38
 70
     1
102
RTVSPost2010Prop39
140
1.0
102
RTVSPost2010PropOp39
 70
     1
102
RTVSPost2010Prop40
 90
        0
102
RTVSPost2010PropOp40
 70
     1
102
RTVSPost2010Prop41ColorIndex
 90
       18
102
RTVSPost2010Prop41ColorRGB
 90
        0
102
RTVSPost2010PropOp41
 70
     1
102
RTVSPost2010Prop42
 90
       50
102
RTVSPost2010PropOp42
 70
     1
102
RTVSPost2010Prop43
 90
        3
102
RTVSPost2010PropOp43
 70
     1
102
RTVSPost2010Prop44ColorIndex
 90
        5
102
RTVSPost2010Prop44ColorRGB
 90
      255
102
RTVSPost2010PropOp44
 70
     1
102
RTVSPost2010Prop45
280
     0
102
RTVSPost2010PropOp45
 70
     1
102
RTVSPost2010Prop46
 90
       50
102
RTVSPost2010PropOp46
 70
     1
102
RTVSPost2010Prop47
 90
       50
102
RTVSPost2010PropOp47
 70
     1
102
RTVSPost2010Prop48
 90
       50
102
RTVSPost2010PropOp48
 70
     1
102
RTVSPost2010Prop49
280
     0
102
RTVSPost2010PropOp49
 70
     1
102
RTVSPost2010Prop50
 90
       50
102
RTVSPost2010PropOp50
 70
     1
102
RTVSPost2010Prop51ColorIndex
 90
      256
102
RTVSPost2010Prop51ColorRGB
 90
-16777216
102
RTVSPost2010PropOp51
 70
     0
102
RTVSPost2010Prop52
140
1.0
102
RTVSPost2010PropOp52
 70
     0
102
RTVSPost2010Prop53
 90
        2
102
RTVSPost2010PropOp53
 70
     1
102
RTVSPost2010Prop54
  1
strokes_ogs.tif
102
RTVSPost2010PropOp54
 70
     1
102
RTVSPost2010Prop55
280
     0
102
RTVSPost2010PropOp55
 70
     1
102
RTVSPost2010Prop56
140
1.0
102
RTVSPost2010PropOp56
 70
     1
102
RTVSPost2010Prop57
140
1.0
102
RTVSPost2010PropOp57
 70
     1
  0
XRECORD
  5
3FC
102
{ACAD_REACTORS
330
3FB
102
}
330
3FB
100
AcDbXrecord
280
     1
102
RTVSPost2010Prop28
280
     0
102
RTVSPost2010PropOp28
 70
     1
102
RTVSPost2010Prop29
280
     1
102
RTVSPost2010PropOp29
 70
     1
102
RTVSPost2010Prop30
280
     1
102
RTVSPost2010PropOp30
 70
     1
102
RTVSPost2010Prop31
280
     0
102
RTVSPost2010PropOp31
 70
     1
102
RTVSPost2010Prop32
280
     0
102
RTVSPost2010PropOp32
 70
     1
102
RTVSPost2010Prop33
280
     0
102
RTVSPost2010PropOp33
 70
     1
102
RTVSPost2010Prop34
280
     0
102
RTVSPost2010PropOp34
 70
     1
102
RTVSPost2010Prop35
280
     0
102
RTVSPost2010PropOp35
 70
     1
102
RTVSPost2010Prop36
280
     0
102
RTVSPost2010PropOp36
 70
     1
102
RTVSPost2010Prop37
 90
       50
102
RTVSPost2010PropOp37
 70
     1
102
RTVSPost2010Prop38
140
0.0
102
RTVSPost2010PropOp38
 70
     1
102
RTVSPost2010Prop39
140
1.0
102
RTVSPost2010PropOp39
 70
     1
102
RTVSPost2010Prop40
 90
        0
102
RTVSPost2010PropOp40
 70
     1
102
RTVSPost2010Prop41ColorIndex
 90
       18
102
RTVSPost2010Prop41ColorRGB
 90
        0
102
RTVSPost2010PropOp41
 70
     1
102
RTVSPost2010Prop42
 90
       50
102
RTVSPost2010PropOp42
 70
     1
102
RTVSPost2010Prop43
 90
        3
102
RTVSPost2010PropOp43
 70
     1
102
RTVSPost2010Prop44ColorIndex
 90
        5
102
RTVSPost2010Prop44ColorRGB
 90
      255
102
RTVSPost2010PropOp44
 70
     1
102
RTVSPost2010Prop45
280
     0
102
RTVSPost2010PropOp45
 70
     1
102
RTVSPost2010Prop46
 90
       50
102
RTVSPost2010PropOp46
 70
     1
102
RTVSPost2010Prop47
 90
       50
102
RTVSPost2010PropOp47
 70
     1
102
RTVSPost2010Prop48
 90
       50
102
RTVSPost2010PropOp48
 70
     1
102
RTVSPost2010Prop49
280
     0
102
RTVSPost2010PropOp49
 70
     1
102
RTVSPost2010Prop50
 90
       50
102
RTVSPost2010PropOp50
 70
     1
102
RTVSPost2010Prop51ColorIndex
 90
      256
102
RTVSPost2010Prop51ColorRGB
 90
-16777216
102
RTVSPost2010PropOp51
 70
     0
102
RTVSPost2010Prop52
140
1.0
102
RTVSPost2010PropOp52
 70
     0
102
RTVSPost2010Prop53
 90
        2
102
RTVSPost2010PropOp53
 70
     1
102
RTVSPost2010Prop54
  1
strokes_ogs.tif
102
RTVSPost2010PropOp54
 70
     1
102
RTVSPost2010Prop55
280
     0
102
RTVSPost2010PropOp55
 70
     1
102
RTVSPost2010Prop56
140
1.0
102
RTVSPost2010PropOp56
 70
     1
102
RTVSPost2010Prop57
140
1.0
102
RTVSPost2010PropOp57
 70
     1
  0
XRECORD
  5
404
102
{ACAD_REACTORS
330
403
102
}
330
403
100
AcDbXrecord
280
     1
102
RTVSPost2010Prop28
280
     0
102
RTVSPost2010PropOp28
 70
     1
102
RTVSPost2010Prop29
280
     1
102
RTVSPost2010PropOp29
 70
     1
102
RTVSPost2010Prop30
280
     1
102
RTVSPost2010PropOp30
 70
     1
102
RTVSPost2010Prop31
280
     0
102
RTVSPost2010PropOp31
 70
     1
102
RTVSPost2010Prop32
280
     0
102
RTVSPost2010PropOp32
 70
     1
102
RTVSPost2010Prop33
280
     0
102
RTVSPost2010PropOp33
 70
     1
102
RTVSPost2010Prop34
280
     0
102
RTVSPost2010PropOp34
 70
     1
102
RTVSPost2010Prop35
280
     0
102
RTVSPost2010PropOp35
 70
     1
102
RTVSPost2010Prop36
280
     0
102
RTVSPost2010PropOp36
 70
     1
102
RTVSPost2010Prop37
 90
       50
102
RTVSPost2010PropOp37
 70
     1
102
RTVSPost2010Prop38
140
0.0
102
RTVSPost2010PropOp38
 70
     1
102
RTVSPost2010Prop39
140
1.0
102
RTVSPost2010PropOp39
 70
     1
102
RTVSPost2010Prop40
 90
        0
102
RTVSPost2010PropOp40
 70
     1
102
RTVSPost2010Prop41ColorIndex
 90
       18
102
RTVSPost2010Prop41ColorRGB
 90
        0
102
RTVSPost2010PropOp41
 70
     1
102
RTVSPost2010Prop42
 90
       50
102
RTVSPost2010PropOp42
 70
     1
102
RTVSPost2010Prop43
 90
        3
102
RTVSPost2010PropOp43
 70
     1
102
RTVSPost2010Prop44ColorIndex
 90
        5
102
RTVSPost2010Prop44ColorRGB
 90
      255
102
RTVSPost2010PropOp44
 70
     1
102
RTVSPost2010Prop45
280
     0
102
RTVSPost2010PropOp45
 70
     1
102
RTVSPost2010Prop46
 90
       50
102
RTVSPost2010PropOp46
 70
     1
102
RTVSPost2010Prop47
 90
       50
102
RTVSPost2010PropOp47
 70
     1
102
RTVSPost2010Prop48
 90
       50
102
RTVSPost2010PropOp48
 70
     1
102
RTVSPost2010Prop49
280
     0
102
RTVSPost2010PropOp49
 70
     1
102
RTVSPost2010Prop50
 90
       50
102
RTVSPost2010PropOp50
 70
     1
102
RTVSPost2010Prop51ColorIndex
 90
      256
102
RTVSPost2010Prop51ColorRGB
 90
-16777216
102
RTVSPost2010PropOp51
 70
     0
102
RTVSPost2010Prop52
140
1.0
102
RTVSPost2010PropOp52
 70
     0
102
RTVSPost2010Prop53
 90
        2
102
RTVSPost2010PropOp53
 70
     1
102
RTVSPost2010Prop54
  1
strokes_ogs.tif
102
RTVSPost2010PropOp54
 70
     1
102
RTVSPost2010Prop55
280
     0
102
RTVSPost2010PropOp55
 70
     1
102
RTVSPost2010Prop56
140
1.0
102
RTVSPost2010PropOp56
 70
     1
102
RTVSPost2010Prop57
140
1.0
102
RTVSPost2010PropOp57
 70
     1
  0
XRECORD
  5
40C
102
{ACAD_REACTORS
330
40B
102
}
330
40B
100
AcDbXrecord
280
     1
102
RTVSPost2010Prop28
280
     0
102
RTVSPost2010PropOp28
 70
     1
102
RTVSPost2010Prop29
280
     1
102
RTVSPost2010PropOp29
 70
     1
102
RTVSPost2010Prop30
280
     1
102
RTVSPost2010PropOp30
 70
     1
102
RTVSPost2010Prop31
280
     0
102
RTVSPost2010PropOp31
 70
     1
102
RTVSPost2010Prop32
280
     0
102
RTVSPost2010PropOp32
 70
     1
102
RTVSPost2010Prop33
280
     0
102
RTVSPost2010PropOp33
 70
     1
102
RTVSPost2010Prop34
280
     0
102
RTVSPost2010PropOp34
 70
     1
102
RTVSPost2010Prop35
280
     0
102
RTVSPost2010PropOp35
 70
     1
102
RTVSPost2010Prop36
280
     0
102
RTVSPost2010PropOp36
 70
     1
102
RTVSPost2010Prop37
 90
       50
102
RTVSPost2010PropOp37
 70
     1
102
RTVSPost2010Prop38
140
0.0
102
RTVSPost2010PropOp38
 70
     1
102
RTVSPost2010Prop39
140
1.0
102
RTVSPost2010PropOp39
 70
     1
102
RTVSPost2010Prop40
 90
        0
102
RTVSPost2010PropOp40
 70
     1
102
RTVSPost2010Prop41ColorIndex
 90
       18
102
RTVSPost2010Prop41ColorRGB
 90
        0
102
RTVSPost2010PropOp41
 70
     1
102
RTVSPost2010Prop42
 90
       50
102
RTVSPost2010PropOp42
 70
     1
102
RTVSPost2010Prop43
 90
        3
102
RTVSPost2010PropOp43
 70
     1
102
RTVSPost2010Prop44ColorIndex
 90
        5
102
RTVSPost2010Prop44ColorRGB
 90
      255
102
RTVSPost2010PropOp44
 70
     1
102
RTVSPost2010Prop45
280
     0
102
RTVSPost2010PropOp45
 70
     1
102
RTVSPost2010Prop46
 90
       50
102
RTVSPost2010PropOp46
 70
     1
102
RTVSPost2010Prop47
 90
       50
102
RTVSPost2010PropOp47
 70
     1
102
RTVSPost2010Prop48
 90
       50
102
RTVSPost2010PropOp48
 70
     1
102
RTVSPost2010Prop49
280
     0
102
RTVSPost2010PropOp49
 70
     1
102
RTVSPost2010Prop50
 90
       50
102
RTVSPost2010PropOp50
 70
     1
102
RTVSPost2010Prop51ColorIndex
 90
      256
102
RTVSPost2010Prop51ColorRGB
 90
-16777216
102
RTVSPost2010PropOp51
 70
     0
102
RTVSPost2010Prop52
140
1.0
102
RTVSPost2010PropOp52
 70
     0
102
RTVSPost2010Prop53
 90
        2
102
RTVSPost2010PropOp53
 70
     1
102
RTVSPost2010Prop54
  1
strokes_ogs.tif
102
RTVSPost2010PropOp54
 70
     1
102
RTVSPost2010Prop55
280
     0
102
RTVSPost2010PropOp55
 70
     1
102
RTVSPost2010Prop56
140
1.0
102
RTVSPost2010PropOp56
 70
     1
102
RTVSPost2010Prop57
140
1.0
102
RTVSPost2010PropOp57
 70
     1
  0
XRECORD
  5
400
102
{ACAD_REACTORS
330
3FF
102
}
330
3FF
100
AcDbXrecord
280
     1
102
RTVSPost2010Prop28
280
     0
102
RTVSPost2010PropOp28
 70
     1
102
RTVSPost2010Prop29
280
     1
102
RTVSPost2010PropOp29
 70
     1
102
RTVSPost2010Prop30
280
     1
102
RTVSPost2010PropOp30
 70
     1
102
RTVSPost2010Prop31
280
     0
102
RTVSPost2010PropOp31
 70
     1
102
RTVSPost2010Prop32
280
     0
102
RTVSPost2010PropOp32
 70
     1
102
RTVSPost2010Prop33
280
     0
102
RTVSPost2010PropOp33
 70
     1
102
RTVSPost2010Prop34
280
     0
102
RTVSPost2010PropOp34
 70
     1
102
RTVSPost2010Prop35
280
     0
102
RTVSPost2010PropOp35
 70
     1
102
RTVSPost2010Prop36
280
     0
102
RTVSPost2010PropOp36
 70
     1
102
RTVSPost2010Prop37
 90
       50
102
RTVSPost2010PropOp37
 70
     1
102
RTVSPost2010Prop38
140
0.0
102
RTVSPost2010PropOp38
 70
     1
102
RTVSPost2010Prop39
140
1.0
102
RTVSPost2010PropOp39
 70
     1
102
RTVSPost2010Prop40
 90
        0
102
RTVSPost2010PropOp40
 70
     1
102
RTVSPost2010Prop41ColorIndex
 90
       18
102
RTVSPost2010Prop41ColorRGB
 90
        0
102
RTVSPost2010PropOp41
 70
     1
102
RTVSPost2010Prop42
 90
       50
102
RTVSPost2010PropOp42
 70
     1
102
RTVSPost2010Prop43
 90
        3
102
RTVSPost2010PropOp43
 70
     1
102
RTVSPost2010Prop44ColorIndex
 90
        5
102
RTVSPost2010Prop44ColorRGB
 90
      255
102
RTVSPost2010PropOp44
 70
     1
102
RTVSPost2010Prop45
280
     0
102
RTVSPost2010PropOp45
 70
     1
102
RTVSPost2010Prop46
 90
       50
102
RTVSPost2010PropOp46
 70
     1
102
RTVSPost2010Prop47
 90
       50
102
RTVSPost2010PropOp47
 70
     1
102
RTVSPost2010Prop48
 90
       50
102
RTVSPost2010PropOp48
 70
     1
102
RTVSPost2010Prop49
280
     0
102
RTVSPost2010PropOp49
 70
     1
102
RTVSPost2010Prop50
 90
       50
102
RTVSPost2010PropOp50
 70
     1
102
RTVSPost2010Prop51ColorIndex
 90
      256
102
RTVSPost2010Prop51ColorRGB
 90
-16777216
102
RTVSPost2010PropOp51
 70
     0
102
RTVSPost2010Prop52
140
1.0
102
RTVSPost2010PropOp52
 70
     0
102
RTVSPost2010Prop53
 90
        2
102
RTVSPost2010PropOp53
 70
     1
102
RTVSPost2010Prop54
  1
strokes_ogs.tif
102
RTVSPost2010PropOp54
 70
     1
102
RTVSPost2010Prop55
280
     0
102
RTVSPost2010PropOp55
 70
     1
102
RTVSPost2010Prop56
140
1.0
102
RTVSPost2010PropOp56
 70
     1
102
RTVSPost2010Prop57
140
1.0
102
RTVSPost2010PropOp57
 70
     1
  0
XRECORD
  5
402
102
{ACAD_REACTORS
330
401
102
}
330
401
100
AcDbXrecord
280
     1
102
RTVSPost2010Prop28
280
     0
102
RTVSPost2010PropOp28
 70
     1
102
RTVSPost2010Prop29
280
     1
102
RTVSPost2010PropOp29
 70
     1
102
RTVSPost2010Prop30
280
     1
102
RTVSPost2010PropOp30
 70
     1
102
RTVSPost2010Prop31
280
     0
102
RTVSPost2010PropOp31
 70
     1
102
RTVSPost2010Prop32
280
     0
102
RTVSPost2010PropOp32
 70
     1
102
RTVSPost2010Prop33
280
     0
102
RTVSPost2010PropOp33
 70
     1
102
RTVSPost2010Prop34
280
     0
102
RTVSPost2010PropOp34
 70
     1
102
RTVSPost2010Prop35
280
     0
102
RTVSPost2010PropOp35
 70
     1
102
RTVSPost2010Prop36
280
     0
102
RTVSPost2010PropOp36
 70
     1
102
RTVSPost2010Prop37
 90
       50
102
RTVSPost2010PropOp37
 70
     1
102
RTVSPost2010Prop38
140
0.0
102
RTVSPost2010PropOp38
 70
     1
102
RTVSPost2010Prop39
140
1.0
102
RTVSPost2010PropOp39
 70
     1
102
RTVSPost2010Prop40
 90
        0
102
RTVSPost2010PropOp40
 70
     1
102
RTVSPost2010Prop41ColorIndex
 90
       18
102
RTVSPost2010Prop41ColorRGB
 90
        0
102
RTVSPost2010PropOp41
 70
     1
102
RTVSPost2010Prop42
 90
       50
102
RTVSPost2010PropOp42
 70
     1
102
RTVSPost2010Prop43
 90
        3
102
RTVSPost2010PropOp43
 70
     1
102
RTVSPost2010Prop44ColorIndex
 90
        5
102
RTVSPost2010Prop44ColorRGB
 90
      255
102
RTVSPost2010PropOp44
 70
     1
102
RTVSPost2010Prop45
280
     0
102
RTVSPost2010PropOp45
 70
     1
102
RTVSPost2010Prop46
 90
       50
102
RTVSPost2010PropOp46
 70
     1
102
RTVSPost2010Prop47
 90
       50
102
RTVSPost2010PropOp47
 70
     1
102
RTVSPost2010Prop48
 90
       50
102
RTVSPost2010PropOp48
 70
     1
102
RTVSPost2010Prop49
280
     0
102
RTVSPost2010PropOp49
 70
     1
102
RTVSPost2010Prop50
 90
       50
102
RTVSPost2010PropOp50
 70
     1
102
RTVSPost2010Prop51ColorIndex
 90
      256
102
RTVSPost2010Prop51ColorRGB
 90
-16777216
102
RTVSPost2010PropOp51
 70
     0
102
RTVSPost2010Prop52
140
1.0
102
RTVSPost2010PropOp52
 70
     0
102
RTVSPost2010Prop53
 90
        2
102
RTVSPost2010PropOp53
 70
     1
102
RTVSPost2010Prop54
  1
strokes_ogs.tif
102
RTVSPost2010PropOp54
 70
     1
102
RTVSPost2010Prop55
280
     0
102
RTVSPost2010PropOp55
 70
     1
102
RTVSPost2010Prop56
140
1.0
102
RTVSPost2010PropOp56
 70
     1
102
RTVSPost2010Prop57
140
1.0
102
RTVSPost2010PropOp57
 70
     1
  0
XRECORD
  5
412
102
{ACAD_REACTORS
330
411
102
}
330
411
100
AcDbXrecord
280
     1
102
RTVSPost2010Prop28
280
     0
102
RTVSPost2010PropOp28
 70
     0
102
RTVSPost2010Prop29
280
     1
102
RTVSPost2010PropOp29
 70
     0
102
RTVSPost2010Prop30
280
     1
102
RTVSPost2010PropOp30
 70
     0
102
RTVSPost2010Prop31
280
     0
102
RTVSPost2010PropOp31
 70
     0
102
RTVSPost2010Prop32
280
     0
102
RTVSPost2010PropOp32
 70
     0
102
RTVSPost2010Prop33
280
     0
102
RTVSPost2010PropOp33
 70
     0
102
RTVSPost2010Prop34
280
     0
102
RTVSPost2010PropOp34
 70
     0
102
RTVSPost2010Prop35
280
     0
102
RTVSPost2010PropOp35
 70
     0
102
RTVSPost2010Prop36
280
     0
102
RTVSPost2010PropOp36
 70
     0
102
RTVSPost2010Prop37
 90
       50
102
RTVSPost2010PropOp37
 70
     0
102
RTVSPost2010Prop38
140
0.0
102
RTVSPost2010PropOp38
 70
     0
102
RTVSPost2010Prop39
140
1.0
102
RTVSPost2010PropOp39
 70
     0
102
RTVSPost2010Prop40
 90
        0
102
RTVSPost2010PropOp40
 70
     0
102
RTVSPost2010Prop41ColorIndex
 90
       18
102
RTVSPost2010Prop41ColorRGB
 90
        0
102
RTVSPost2010PropOp41
 70
     0
102
RTVSPost2010Prop42
 90
       50
102
RTVSPost2010PropOp42
 70
     0
102
RTVSPost2010Prop43
 90
        3
102
RTVSPost2010PropOp43
 70
     0
102
RTVSPost2010Prop44ColorIndex
 90
        5
102
RTVSPost2010Prop44ColorRGB
 90
      255
102
RTVSPost2010PropOp44
 70
     0
102
RTVSPost2010Prop45
280
     0
102
RTVSPost2010PropOp45
 70
     0
102
RTVSPost2010Prop46
 90
       50
102
RTVSPost2010PropOp46
 70
     0
102
RTVSPost2010Prop47
 90
       50
102
RTVSPost2010PropOp47
 70
     0
102
RTVSPost2010Prop48
 90
       50
102
RTVSPost2010PropOp48
 70
     0
102
RTVSPost2010Prop49
280
     0
102
RTVSPost2010PropOp49
 70
     0
102
RTVSPost2010Prop50
 90
       50
102
RTVSPost2010PropOp50
 70
     0
102
RTVSPost2010Prop51ColorIndex
 90
      256
102
RTVSPost2010Prop51ColorRGB
 90
-16777216
102
RTVSPost2010PropOp51
 70
     0
102
RTVSPost2010Prop52
140
1.0
102
RTVSPost2010PropOp52
 70
     0
102
RTVSPost2010Prop53
 90
        2
102
RTVSPost2010PropOp53
 70
     0
102
RTVSPost2010Prop54
  1
strokes_ogs.tif
102
RTVSPost2010PropOp54
 70
     0
102
RTVSPost2010Prop55
280
     0
102
RTVSPost2010PropOp55
 70
     0
102
RTVSPost2010Prop56
140
1.0
102
RTVSPost2010PropOp56
 70
     0
102
RTVSPost2010Prop57
140
1.0
102
RTVSPost2010PropOp57
 70
     0
  0
XRECORD
  5
40A
102
{ACAD_REACTORS
330
409
102
}
330
409
100
AcDbXrecord
280
     1
102
RTVSPost2010Prop28
280
     0
102
RTVSPost2010PropOp28
 70
     1
102
RTVSPost2010Prop29
280
     1
102
RTVSPost2010PropOp29
 70
     1
102
RTVSPost2010Prop30
280
     1
102
RTVSPost2010PropOp30
 70
     1
102
RTVSPost2010Prop31
280
     0
102
RTVSPost2010PropOp31
 70
     1
102
RTVSPost2010Prop32
280
     0
102
RTVSPost2010PropOp32
 70
     1
102
RTVSPost2010Prop33
280
     0
102
RTVSPost2010PropOp33
 70
     1
102
RTVSPost2010Prop34
280
     0
102
RTVSPost2010PropOp34
 70
     1
102
RTVSPost2010Prop35
280
     0
102
RTVSPost2010PropOp35
 70
     1
102
RTVSPost2010Prop36
280
     0
102
RTVSPost2010PropOp36
 70
     1
102
RTVSPost2010Prop37
 90
       50
102
RTVSPost2010PropOp37
 70
     1
102
RTVSPost2010Prop38
140
0.0
102
RTVSPost2010PropOp38
 70
     1
102
RTVSPost2010Prop39
140
1.0
102
RTVSPost2010PropOp39
 70
     1
102
RTVSPost2010Prop40
 90
        0
102
RTVSPost2010PropOp40
 70
     1
102
RTVSPost2010Prop41ColorIndex
 90
       18
102
RTVSPost2010Prop41ColorRGB
 90
        0
102
RTVSPost2010PropOp41
 70
     1
102
RTVSPost2010Prop42
 90
       50
102
RTVSPost2010PropOp42
 70
     1
102
RTVSPost2010Prop43
 90
        3
102
RTVSPost2010PropOp43
 70
     1
102
RTVSPost2010Prop44ColorIndex
 90
        5
102
RTVSPost2010Prop44ColorRGB
 90
      255
102
RTVSPost2010PropOp44
 70
     1
102
RTVSPost2010Prop45
280
     0
102
RTVSPost2010PropOp45
 70
     1
102
RTVSPost2010Prop46
 90
       50
102
RTVSPost2010PropOp46
 70
     1
102
RTVSPost2010Prop47
 90
       50
102
RTVSPost2010PropOp47
 70
     1
102
RTVSPost2010Prop48
 90
       50
102
RTVSPost2010PropOp48
 70
     1
102
RTVSPost2010Prop49
280
     0
102
RTVSPost2010PropOp49
 70
     1
102
RTVSPost2010Prop50
 90
       50
102
RTVSPost2010PropOp50
 70
     1
102
RTVSPost2010Prop51ColorIndex
 90
      256
102
RTVSPost2010Prop51ColorRGB
 90
-16777216
102
RTVSPost2010PropOp51
 70
     0
102
RTVSPost2010Prop52
140
1.0
102
RTVSPost2010PropOp52
 70
     0
102
RTVSPost2010Prop53
 90
        2
102
RTVSPost2010PropOp53
 70
     1
102
RTVSPost2010Prop54
  1
strokes_ogs.tif
102
RTVSPost2010PropOp54
 70
     1
102
RTVSPost2010Prop55
280
     0
102
RTVSPost2010PropOp55
 70
     1
102
RTVSPost2010Prop56
140
1.0
102
RTVSPost2010PropOp56
 70
     1
102
RTVSPost2010Prop57
140
1.0
102
RTVSPost2010PropOp57
 70
     1
  0
XRECORD
  5
3EE
102
{ACAD_REACTORS
330
3ED
102
}
330
3ED
100
AcDbXrecord
280
     1
102
RTVSPost2010Prop28
280
     0
102
RTVSPost2010PropOp28
 70
     1
102
RTVSPost2010Prop29
280
     1
102
RTVSPost2010PropOp29
 70
     1
102
RTVSPost2010Prop30
280
     1
102
RTVSPost2010PropOp30
 70
     1
102
RTVSPost2010Prop31
280
     0
102
RTVSPost2010PropOp31
 70
     1
102
RTVSPost2010Prop32
280
     0
102
RTVSPost2010PropOp32
 70
     1
102
RTVSPost2010Prop33
280
     0
102
RTVSPost2010PropOp33
 70
     1
102
RTVSPost2010Prop34
280
     0
102
RTVSPost2010PropOp34
 70
     1
102
RTVSPost2010Prop35
280
     0
102
RTVSPost2010PropOp35
 70
     1
102
RTVSPost2010Prop36
280
     0
102
RTVSPost2010PropOp36
 70
     1
102
RTVSPost2010Prop37
 90
       50
102
RTVSPost2010PropOp37
 70
     1
102
RTVSPost2010Prop38
140
0.0
102
RTVSPost2010PropOp38
 70
     1
102
RTVSPost2010Prop39
140
1.0
102
RTVSPost2010PropOp39
 70
     1
102
RTVSPost2010Prop40
 90
        0
102
RTVSPost2010PropOp40
 70
     1
102
RTVSPost2010Prop41ColorIndex
 90
       18
102
RTVSPost2010Prop41ColorRGB
 90
        0
102
RTVSPost2010PropOp41
 70
     1
102
RTVSPost2010Prop42
 90
       50
102
RTVSPost2010PropOp42
 70
     1
102
RTVSPost2010Prop43
 90
        3
102
RTVSPost2010PropOp43
 70
     1
102
RTVSPost2010Prop44ColorIndex
 90
        5
102
RTVSPost2010Prop44ColorRGB
 90
      255
102
RTVSPost2010PropOp44
 70
     1
102
RTVSPost2010Prop45
280
     0
102
RTVSPost2010PropOp45
 70
     1
102
RTVSPost2010Prop46
 90
       50
102
RTVSPost2010PropOp46
 70
     1
102
RTVSPost2010Prop47
 90
       50
102
RTVSPost2010PropOp47
 70
     1
102
RTVSPost2010Prop48
 90
       50
102
RTVSPost2010PropOp48
 70
     1
102
RTVSPost2010Prop49
280
     0
102
RTVSPost2010PropOp49
 70
     1
102
RTVSPost2010Prop50
 90
       50
102
RTVSPost2010PropOp50
 70
     1
102
RTVSPost2010Prop51ColorIndex
 90
      256
102
RTVSPost2010Prop51ColorRGB
 90
-16777216
102
RTVSPost2010PropOp51
 70
     0
102
RTVSPost2010Prop52
140
1.0
102
RTVSPost2010PropOp52
 70
     0
102
RTVSPost2010Prop53
 90
        2
102
RTVSPost2010PropOp53
 70
     1
102
RTVSPost2010Prop54
  1
strokes_ogs.tif
102
RTVSPost2010PropOp54
 70
     1
102
RTVSPost2010Prop55
280
     0
102
RTVSPost2010PropOp55
 70
     1
102
RTVSPost2010Prop56
140
1.0
102
RTVSPost2010PropOp56
 70
     1
102
RTVSPost2010Prop57
140
1.0
102
RTVSPost2010PropOp57
 70
     1
  0
XRECORD
  5
3F0
102
{ACAD_REACTORS
330
3EF
102
}
330
3EF
100
AcDbXrecord
280
     1
102
RTVSPost2010Prop28
280
     0
102
RTVSPost2010PropOp28
 70
     1
102
RTVSPost2010Prop29
280
     1
102
RTVSPost2010PropOp29
 70
     1
102
RTVSPost2010Prop30
280
     1
102
RTVSPost2010PropOp30
 70
     1
102
RTVSPost2010Prop31
280
     0
102
RTVSPost2010PropOp31
 70
     1
102
RTVSPost2010Prop32
280
     0
102
RTVSPost2010PropOp32
 70
     1
102
RTVSPost2010Prop33
280
     0
102
RTVSPost2010PropOp33
 70
     1
102
RTVSPost2010Prop34
280
     0
102
RTVSPost2010PropOp34
 70
     1
102
RTVSPost2010Prop35
280
     0
102
RTVSPost2010PropOp35
 70
     1
102
RTVSPost2010Prop36
280
     0
102
RTVSPost2010PropOp36
 70
     1
102
RTVSPost2010Prop37
 90
       50
102
RTVSPost2010PropOp37
 70
     1
102
RTVSPost2010Prop38
140
0.0
102
RTVSPost2010PropOp38
 70
     1
102
RTVSPost2010Prop39
140
1.0
102
RTVSPost2010PropOp39
 70
     1
102
RTVSPost2010Prop40
 90
        0
102
RTVSPost2010PropOp40
 70
     1
102
RTVSPost2010Prop41ColorIndex
 90
       18
102
RTVSPost2010Prop41ColorRGB
 90
        0
102
RTVSPost2010PropOp41
 70
     1
102
RTVSPost2010Prop42
 90
       50
102
RTVSPost2010PropOp42
 70
     1
102
RTVSPost2010Prop43
 90
        3
102
RTVSPost2010PropOp43
 70
     1
102
RTVSPost2010Prop44ColorIndex
 90
        5
102
RTVSPost2010Prop44ColorRGB
 90
      255
102
RTVSPost2010PropOp44
 70
     1
102
RTVSPost2010Prop45
280
     0
102
RTVSPost2010PropOp45
 70
     1
102
RTVSPost2010Prop46
 90
       50
102
RTVSPost2010PropOp46
 70
     1
102
RTVSPost2010Prop47
 90
       50
102
RTVSPost2010PropOp47
 70
     1
102
RTVSPost2010Prop48
 90
       50
102
RTVSPost2010PropOp48
 70
     1
102
RTVSPost2010Prop49
280
     0
102
RTVSPost2010PropOp49
 70
     1
102
RTVSPost2010Prop50
 90
       50
102
RTVSPost2010PropOp50
 70
     1
102
RTVSPost2010Prop51ColorIndex
 90
      256
102
RTVSPost2010Prop51ColorRGB
 90
-16777216
102
RTVSPost2010PropOp51
 70
     0
102
RTVSPost2010Prop52
140
1.0
102
RTVSPost2010PropOp52
 70
     0
102
RTVSPost2010Prop53
 90
        2
102
RTVSPost2010PropOp53
 70
     1
102
RTVSPost2010Prop54
  1
strokes_ogs.tif
102
RTVSPost2010PropOp54
 70
     1
102
RTVSPost2010Prop55
280
     0
102
RTVSPost2010PropOp55
 70
     1
102
RTVSPost2010Prop56
140
1.0
102
RTVSPost2010PropOp56
 70
     1
102
RTVSPost2010Prop57
140
1.0
102
RTVSPost2010PropOp57
 70
     1
  0
XRECORD
  5
3F2
102
{ACAD_REACTORS
330
3F1
102
}
330
3F1
100
AcDbXrecord
280
     1
102
RTVSPost2010Prop28
280
     0
102
RTVSPost2010PropOp28
 70
     1
102
RTVSPost2010Prop29
280
     1
102
RTVSPost2010PropOp29
 70
     1
102
RTVSPost2010Prop30
280
     1
102
RTVSPost2010PropOp30
 70
     1
102
RTVSPost2010Prop31
280
     0
102
RTVSPost2010PropOp31
 70
     1
102
RTVSPost2010Prop32
280
     0
102
RTVSPost2010PropOp32
 70
     1
102
RTVSPost2010Prop33
280
     0
102
RTVSPost2010PropOp33
 70
     1
102
RTVSPost2010Prop34
280
     0
102
RTVSPost2010PropOp34
 70
     1
102
RTVSPost2010Prop35
280
     0
102
RTVSPost2010PropOp35
 70
     1
102
RTVSPost2010Prop36
280
     0
102
RTVSPost2010PropOp36
 70
     1
102
RTVSPost2010Prop37
 90
       50
102
RTVSPost2010PropOp37
 70
     1
102
RTVSPost2010Prop38
140
0.0
102
RTVSPost2010PropOp38
 70
     1
102
RTVSPost2010Prop39
140
1.0
102
RTVSPost2010PropOp39
 70
     1
102
RTVSPost2010Prop40
 90
        0
102
RTVSPost2010PropOp40
 70
     1
102
RTVSPost2010Prop41ColorIndex
 90
       18
102
RTVSPost2010Prop41ColorRGB
 90
        0
102
RTVSPost2010PropOp41
 70
     1
102
RTVSPost2010Prop42
 90
       50
102
RTVSPost2010PropOp42
 70
     1
102
RTVSPost2010Prop43
 90
        3
102
RTVSPost2010PropOp43
 70
     1
102
RTVSPost2010Prop44ColorIndex
 90
        5
102
RTVSPost2010Prop44ColorRGB
 90
      255
102
RTVSPost2010PropOp44
 70
     1
102
RTVSPost2010Prop45
280
     0
102
RTVSPost2010PropOp45
 70
     1
102
RTVSPost2010Prop46
 90
       50
102
RTVSPost2010PropOp46
 70
     1
102
RTVSPost2010Prop47
 90
       50
102
RTVSPost2010PropOp47
 70
     1
102
RTVSPost2010Prop48
 90
       50
102
RTVSPost2010PropOp48
 70
     1
102
RTVSPost2010Prop49
280
     0
102
RTVSPost2010PropOp49
 70
     1
102
RTVSPost2010Prop50
 90
       50
102
RTVSPost2010PropOp50
 70
     1
102
RTVSPost2010Prop51ColorIndex
 90
      256
102
RTVSPost2010Prop51ColorRGB
 90
-16777216
102
RTVSPost2010PropOp51
 70
     0
102
RTVSPost2010Prop52
140
1.0
102
RTVSPost2010PropOp52
 70
     0
102
RTVSPost2010Prop53
 90
        2
102
RTVSPost2010PropOp53
 70
     1
102
RTVSPost2010Prop54
  1
strokes_ogs.tif
102
RTVSPost2010PropOp54
 70
     1
102
RTVSPost2010Prop55
280
     0
102
RTVSPost2010PropOp55
 70
     1
102
RTVSPost2010Prop56
140
1.0
102
RTVSPost2010PropOp56
 70
     1
102
RTVSPost2010Prop57
140
1.0
102
RTVSPost2010PropOp57
 70
     1
  0
XRECORD
  5
3F4
102
{ACAD_REACTORS
330
3F3
102
}
330
3F3
100
AcDbXrecord
280
     1
102
RTVSPost2010Prop28
280
     0
102
RTVSPost2010PropOp28
 70
     1
102
RTVSPost2010Prop29
280
     1
102
RTVSPost2010PropOp29
 70
     1
102
RTVSPost2010Prop30
280
     1
102
RTVSPost2010PropOp30
 70
     1
102
RTVSPost2010Prop31
280
     0
102
RTVSPost2010PropOp31
 70
     1
102
RTVSPost2010Prop32
280
     0
102
RTVSPost2010PropOp32
 70
     1
102
RTVSPost2010Prop33
280
     0
102
RTVSPost2010PropOp33
 70
     1
102
RTVSPost2010Prop34
280
     0
102
RTVSPost2010PropOp34
 70
     1
102
RTVSPost2010Prop35
280
     0
102
RTVSPost2010PropOp35
 70
     1
102
RTVSPost2010Prop36
280
     0
102
RTVSPost2010PropOp36
 70
     1
102
RTVSPost2010Prop37
 90
       50
102
RTVSPost2010PropOp37
 70
     1
102
RTVSPost2010Prop38
140
0.0
102
RTVSPost2010PropOp38
 70
     1
102
RTVSPost2010Prop39
140
1.0
102
RTVSPost2010PropOp39
 70
     1
102
RTVSPost2010Prop40
 90
        0
102
RTVSPost2010PropOp40
 70
     1
102
RTVSPost2010Prop41ColorIndex
 90
       18
102
RTVSPost2010Prop41ColorRGB
 90
        0
102
RTVSPost2010PropOp41
 70
     1
102
RTVSPost2010Prop42
 90
       50
102
RTVSPost2010PropOp42
 70
     1
102
RTVSPost2010Prop43
 90
        3
102
RTVSPost2010PropOp43
 70
     1
102
RTVSPost2010Prop44ColorIndex
 90
        5
102
RTVSPost2010Prop44ColorRGB
 90
      255
102
RTVSPost2010PropOp44
 70
     1
102
RTVSPost2010Prop45
280
     0
102
RTVSPost2010PropOp45
 70
     1
102
RTVSPost2010Prop46
 90
       50
102
RTVSPost2010PropOp46
 70
     1
102
RTVSPost2010Prop47
 90
       50
102
RTVSPost2010PropOp47
 70
     1
102
RTVSPost2010Prop48
 90
       50
102
RTVSPost2010PropOp48
 70
     1
102
RTVSPost2010Prop49
280
     0
102
RTVSPost2010PropOp49
 70
     1
102
RTVSPost2010Prop50
 90
       50
102
RTVSPost2010PropOp50
 70
     1
102
RTVSPost2010Prop51ColorIndex
 90
      256
102
RTVSPost2010Prop51ColorRGB
 90
-16777216
102
RTVSPost2010PropOp51
 70
     0
102
RTVSPost2010Prop52
140
1.0
102
RTVSPost2010PropOp52
 70
     0
102
RTVSPost2010Prop53
 90
        2
102
RTVSPost2010PropOp53
 70
     1
102
RTVSPost2010Prop54
  1
strokes_ogs.tif
102
RTVSPost2010PropOp54
 70
     1
102
RTVSPost2010Prop55
280
     0
102
RTVSPost2010PropOp55
 70
     1
102
RTVSPost2010Prop56
140
1.0
102
RTVSPost2010PropOp56
 70
     1
102
RTVSPost2010Prop57
140
1.0
102
RTVSPost2010PropOp57
 70
     1
  0
XRECORD
  5
3FA
102
{ACAD_REACTORS
330
3F9
102
}
330
3F9
100
AcDbXrecord
280
     1
102
RTVSPost2010Prop28
280
     0
102
RTVSPost2010PropOp28
 70
     1
102
RTVSPost2010Prop29
280
     1
102
RTVSPost2010PropOp29
 70
     1
102
RTVSPost2010Prop30
280
     1
102
RTVSPost2010PropOp30
 70
     1
102
RTVSPost2010Prop31
280
     0
102
RTVSPost2010PropOp31
 70
     1
102
RTVSPost2010Prop32
280
     0
102
RTVSPost2010PropOp32
 70
     1
102
RTVSPost2010Prop33
280
     0
102
RTVSPost2010PropOp33
 70
     1
102
RTVSPost2010Prop34
280
     0
102
RTVSPost2010PropOp34
 70
     1
102
RTVSPost2010Prop35
280
     0
102
RTVSPost2010PropOp35
 70
     1
102
RTVSPost2010Prop36
280
     0
102
RTVSPost2010PropOp36
 70
     1
102
RTVSPost2010Prop37
 90
       50
102
RTVSPost2010PropOp37
 70
     1
102
RTVSPost2010Prop38
140
0.0
102
RTVSPost2010PropOp38
 70
     1
102
RTVSPost2010Prop39
140
1.0
102
RTVSPost2010PropOp39
 70
     1
102
RTVSPost2010Prop40
 90
        0
102
RTVSPost2010PropOp40
 70
     1
102
RTVSPost2010Prop41ColorIndex
 90
       18
102
RTVSPost2010Prop41ColorRGB
 90
        0
102
RTVSPost2010PropOp41
 70
     1
102
RTVSPost2010Prop42
 90
       50
102
RTVSPost2010PropOp42
 70
     1
102
RTVSPost2010Prop43
 90
        3
102
RTVSPost2010PropOp43
 70
     1
102
RTVSPost2010Prop44ColorIndex
 90
        5
102
RTVSPost2010Prop44ColorRGB
 90
      255
102
RTVSPost2010PropOp44
 70
     1
102
RTVSPost2010Prop45
280
     0
102
RTVSPost2010PropOp45
 70
     1
102
RTVSPost2010Prop46
 90
       50
102
RTVSPost2010PropOp46
 70
     1
102
RTVSPost2010Prop47
 90
       50
102
RTVSPost2010PropOp47
 70
     1
102
RTVSPost2010Prop48
 90
       50
102
RTVSPost2010PropOp48
 70
     1
102
RTVSPost2010Prop49
280
     0
102
RTVSPost2010PropOp49
 70
     1
102
RTVSPost2010Prop50
 90
       50
102
RTVSPost2010PropOp50
 70
     1
102
RTVSPost2010Prop51ColorIndex
 90
      256
102
RTVSPost2010Prop51ColorRGB
 90
-16777216
102
RTVSPost2010PropOp51
 70
     0
102
RTVSPost2010Prop52
140
1.0
102
RTVSPost2010PropOp52
 70
     0
102
RTVSPost2010Prop53
 90
        2
102
RTVSPost2010PropOp53
 70
     1
102
RTVSPost2010Prop54
  1
strokes_ogs.tif
102
RTVSPost2010PropOp54
 70
     1
102
RTVSPost2010Prop55
280
     0
102
RTVSPost2010PropOp55
 70
     1
102
RTVSPost2010Prop56
140
1.0
102
RTVSPost2010PropOp56
 70
     1
102
RTVSPost2010Prop57
140
1.0
102
RTVSPost2010PropOp57
 70
     1
  0
XRECORD
  5
40E
102
{ACAD_REACTORS
330
40D
102
}
330
40D
100
AcDbXrecord
280
     1
102
RTVSPost2010Prop28
280
     0
102
RTVSPost2010PropOp28
 70
     0
102
RTVSPost2010Prop29
280
     1
102
RTVSPost2010PropOp29
 70
     0
102
RTVSPost2010Prop30
280
     1
102
RTVSPost2010PropOp30
 70
     0
102
RTVSPost2010Prop31
280
     0
102
RTVSPost2010PropOp31
 70
     0
102
RTVSPost2010Prop32
280
     0
102
RTVSPost2010PropOp32
 70
     0
102
RTVSPost2010Prop33
280
     0
102
RTVSPost2010PropOp33
 70
     0
102
RTVSPost2010Prop34
280
     0
102
RTVSPost2010PropOp34
 70
     0
102
RTVSPost2010Prop35
280
     0
102
RTVSPost2010PropOp35
 70
     0
102
RTVSPost2010Prop36
280
     0
102
RTVSPost2010PropOp36
 70
     0
102
RTVSPost2010Prop37
 90
       50
102
RTVSPost2010PropOp37
 70
     0
102
RTVSPost2010Prop38
140
0.0
102
RTVSPost2010PropOp38
 70
     0
102
RTVSPost2010Prop39
140
1.0
102
RTVSPost2010PropOp39
 70
     0
102
RTVSPost2010Prop40
 90
        0
102
RTVSPost2010PropOp40
 70
     0
102
RTVSPost2010Prop41ColorIndex
 90
       18
102
RTVSPost2010Prop41ColorRGB
 90
        0
102
RTVSPost2010PropOp41
 70
     0
102
RTVSPost2010Prop42
 90
       50
102
RTVSPost2010PropOp42
 70
     0
102
RTVSPost2010Prop43
 90
        3
102
RTVSPost2010PropOp43
 70
     0
102
RTVSPost2010Prop44ColorIndex
 90
        5
102
RTVSPost2010Prop44ColorRGB
 90
      255
102
RTVSPost2010PropOp44
 70
     0
102
RTVSPost2010Prop45
280
     0
102
RTVSPost2010PropOp45
 70
     0
102
RTVSPost2010Prop46
 90
       50
102
RTVSPost2010PropOp46
 70
     0
102
RTVSPost2010Prop47
 90
       50
102
RTVSPost2010PropOp47
 70
     0
102
RTVSPost2010Prop48
 90
       50
102
RTVSPost2010PropOp48
 70
     0
102
RTVSPost2010Prop49
280
     0
102
RTVSPost2010PropOp49
 70
     0
102
RTVSPost2010Prop50
 90
       50
102
RTVSPost2010PropOp50
 70
     0
102
RTVSPost2010Prop51ColorIndex
 90
      256
102
RTVSPost2010Prop51ColorRGB
 90
-16777216
102
RTVSPost2010PropOp51
 70
     0
102
RTVSPost2010Prop52
140
1.0
102
RTVSPost2010PropOp52
 70
     0
102
RTVSPost2010Prop53
 90
        2
102
RTVSPost2010PropOp53
 70
     0
102
RTVSPost2010Prop54
  1
strokes_ogs.tif
102
RTVSPost2010PropOp54
 70
     0
102
RTVSPost2010Prop55
280
     0
102
RTVSPost2010PropOp55
 70
     0
102
RTVSPost2010Prop56
140
1.0
102
RTVSPost2010PropOp56
 70
     0
102
RTVSPost2010Prop57
140
1.0
102
RTVSPost2010PropOp57
 70
     0
  0
XRECORD
  5
408
102
{ACAD_REACTORS
330
407
102
}
330
407
100
AcDbXrecord
280
     1
102
RTVSPost2010Prop28
280
     0
102
RTVSPost2010PropOp28
 70
     1
102
RTVSPost2010Prop29
280
     1
102
RTVSPost2010PropOp29
 70
     1
102
RTVSPost2010Prop30
280
     1
102
RTVSPost2010PropOp30
 70
     1
102
RTVSPost2010Prop31
280
     0
102
RTVSPost2010PropOp31
 70
     1
102
RTVSPost2010Prop32
280
     0
102
RTVSPost2010PropOp32
 70
     1
102
RTVSPost2010Prop33
280
     0
102
RTVSPost2010PropOp33
 70
     1
102
RTVSPost2010Prop34
280
     0
102
RTVSPost2010PropOp34
 70
     1
102
RTVSPost2010Prop35
280
     0
102
RTVSPost2010PropOp35
 70
     1
102
RTVSPost2010Prop36
280
     0
102
RTVSPost2010PropOp36
 70
     1
102
RTVSPost2010Prop37
 90
       50
102
RTVSPost2010PropOp37
 70
     1
102
RTVSPost2010Prop38
140
0.0
102
RTVSPost2010PropOp38
 70
     1
102
RTVSPost2010Prop39
140
1.0
102
RTVSPost2010PropOp39
 70
     1
102
RTVSPost2010Prop40
 90
        0
102
RTVSPost2010PropOp40
 70
     1
102
RTVSPost2010Prop41ColorIndex
 90
       18
102
RTVSPost2010Prop41ColorRGB
 90
        0
102
RTVSPost2010PropOp41
 70
     1
102
RTVSPost2010Prop42
 90
       50
102
RTVSPost2010PropOp42
 70
     1
102
RTVSPost2010Prop43
 90
        3
102
RTVSPost2010PropOp43
 70
     1
102
RTVSPost2010Prop44ColorIndex
 90
        5
102
RTVSPost2010Prop44ColorRGB
 90
      255
102
RTVSPost2010PropOp44
 70
     1
102
RTVSPost2010Prop45
280
     0
102
RTVSPost2010PropOp45
 70
     1
102
RTVSPost2010Prop46
 90
       50
102
RTVSPost2010PropOp46
 70
     1
102
RTVSPost2010Prop47
 90
       50
102
RTVSPost2010PropOp47
 70
     1
102
RTVSPost2010Prop48
 90
       50
102
RTVSPost2010PropOp48
 70
     1
102
RTVSPost2010Prop49
280
     0
102
RTVSPost2010PropOp49
 70
     1
102
RTVSPost2010Prop50
 90
       50
102
RTVSPost2010PropOp50
 70
     1
102
RTVSPost2010Prop51ColorIndex
 90
      256
102
RTVSPost2010Prop51ColorRGB
 90
-16777216
102
RTVSPost2010PropOp51
 70
     0
102
RTVSPost2010Prop52
140
1.0
102
RTVSPost2010PropOp52
 70
     0
102
RTVSPost2010Prop53
 90
        2
102
RTVSPost2010PropOp53
 70
     1
102
RTVSPost2010Prop54
  1
strokes_ogs.tif
102
RTVSPost2010PropOp54
 70
     1
102
RTVSPost2010Prop55
280
     0
102
RTVSPost2010PropOp55
 70
     1
102
RTVSPost2010Prop56
140
1.0
102
RTVSPost2010PropOp56
 70
     1
102
RTVSPost2010Prop57
140
1.0
102
RTVSPost2010PropOp57
 70
     1
  0
XRECORD
  5
410
102
{ACAD_REACTORS
330
40F
102
}
330
40F
100
AcDbXrecord
280
     1
102
RTVSPost2010Prop28
280
     0
102
RTVSPost2010PropOp28
 70
     0
102
RTVSPost2010Prop29
280
     1
102
RTVSPost2010PropOp29
 70
     0
102
RTVSPost2010Prop30
280
     1
102
RTVSPost2010PropOp30
 70
     0
102
RTVSPost2010Prop31
280
     0
102
RTVSPost2010PropOp31
 70
     0
102
RTVSPost2010Prop32
280
     0
102
RTVSPost2010PropOp32
 70
     0
102
RTVSPost2010Prop33
280
     0
102
RTVSPost2010PropOp33
 70
     0
102
RTVSPost2010Prop34
280
     0
102
RTVSPost2010PropOp34
 70
     0
102
RTVSPost2010Prop35
280
     0
102
RTVSPost2010PropOp35
 70
     0
102
RTVSPost2010Prop36
280
     0
102
RTVSPost2010PropOp36
 70
     0
102
RTVSPost2010Prop37
 90
       50
102
RTVSPost2010PropOp37
 70
     0
102
RTVSPost2010Prop38
140
0.0
102
RTVSPost2010PropOp38
 70
     0
102
RTVSPost2010Prop39
140
1.0
102
RTVSPost2010PropOp39
 70
     0
102
RTVSPost2010Prop40
 90
        0
102
RTVSPost2010PropOp40
 70
     0
102
RTVSPost2010Prop41ColorIndex
 90
       18
102
RTVSPost2010Prop41ColorRGB
 90
        0
102
RTVSPost2010PropOp41
 70
     0
102
RTVSPost2010Prop42
 90
       50
102
RTVSPost2010PropOp42
 70
     0
102
RTVSPost2010Prop43
 90
        3
102
RTVSPost2010PropOp43
 70
     0
102
RTVSPost2010Prop44ColorIndex
 90
        5
102
RTVSPost2010Prop44ColorRGB
 90
      255
102
RTVSPost2010PropOp44
 70
     0
102
RTVSPost2010Prop45
280
     0
102
RTVSPost2010PropOp45
 70
     0
102
RTVSPost2010Prop46
 90
       50
102
RTVSPost2010PropOp46
 70
     0
102
RTVSPost2010Prop47
 90
       50
102
RTVSPost2010PropOp47
 70
     0
102
RTVSPost2010Prop48
 90
       50
102
RTVSPost2010PropOp48
 70
     0
102
RTVSPost2010Prop49
280
     0
102
RTVSPost2010PropOp49
 70
     0
102
RTVSPost2010Prop50
 90
       50
102
RTVSPost2010PropOp50
 70
     0
102
RTVSPost2010Prop51ColorIndex
 90
      256
102
RTVSPost2010Prop51ColorRGB
 90
-16777216
102
RTVSPost2010PropOp51
 70
     0
102
RTVSPost2010Prop52
140
1.0
102
RTVSPost2010PropOp52
 70
     0
102
RTVSPost2010Prop53
 90
        2
102
RTVSPost2010PropOp53
 70
     0
102
RTVSPost2010Prop54
  1
strokes_ogs.tif
102
RTVSPost2010PropOp54
 70
     0
102
RTVSPost2010Prop55
280
     0
102
RTVSPost2010PropOp55
 70
     0
102
RTVSPost2010Prop56
140
1.0
102
RTVSPost2010PropOp56
 70
     0
102
RTVSPost2010Prop57
140
1.0
102
RTVSPost2010PropOp57
 70
     0
  0
XRECORD
  5
3FE
102
{ACAD_REACTORS
330
3FD
102
}
330
3FD
100
AcDbXrecord
280
     1
102
RTVSPost2010Prop28
280
     0
102
RTVSPost2010PropOp28
 70
     1
102
RTVSPost2010Prop29
280
     1
102
RTVSPost2010PropOp29
 70
     1
102
RTVSPost2010Prop30
280
     1
102
RTVSPost2010PropOp30
 70
     1
102
RTVSPost2010Prop31
280
     0
102
RTVSPost2010PropOp31
 70
     1
102
RTVSPost2010Prop32
280
     0
102
RTVSPost2010PropOp32
 70
     1
102
RTVSPost2010Prop33
280
     0
102
RTVSPost2010PropOp33
 70
     1
102
RTVSPost2010Prop34
280
     0
102
RTVSPost2010PropOp34
 70
     1
102
RTVSPost2010Prop35
280
     0
102
RTVSPost2010PropOp35
 70
     1
102
RTVSPost2010Prop36
280
     0
102
RTVSPost2010PropOp36
 70
     1
102
RTVSPost2010Prop37
 90
       50
102
RTVSPost2010PropOp37
 70
     1
102
RTVSPost2010Prop38
140
0.0
102
RTVSPost2010PropOp38
 70
     1
102
RTVSPost2010Prop39
140
1.0
102
RTVSPost2010PropOp39
 70
     1
102
RTVSPost2010Prop40
 90
        0
102
RTVSPost2010PropOp40
 70
     1
102
RTVSPost2010Prop41ColorIndex
 90
       18
102
RTVSPost2010Prop41ColorRGB
 90
        0
102
RTVSPost2010PropOp41
 70
     1
102
RTVSPost2010Prop42
 90
       50
102
RTVSPost2010PropOp42
 70
     1
102
RTVSPost2010Prop43
 90
        3
102
RTVSPost2010PropOp43
 70
     1
102
RTVSPost2010Prop44ColorIndex
 90
        5
102
RTVSPost2010Prop44ColorRGB
 90
      255
102
RTVSPost2010PropOp44
 70
     1
102
RTVSPost2010Prop45
280
     0
102
RTVSPost2010PropOp45
 70
     1
102
RTVSPost2010Prop46
 90
       50
102
RTVSPost2010PropOp46
 70
     1
102
RTVSPost2010Prop47
 90
       50
102
RTVSPost2010PropOp47
 70
     1
102
RTVSPost2010Prop48
 90
       50
102
RTVSPost2010PropOp48
 70
     1
102
RTVSPost2010Prop49
280
     0
102
RTVSPost2010PropOp49
 70
     1
102
RTVSPost2010Prop50
 90
       50
102
RTVSPost2010PropOp50
 70
     1
102
RTVSPost2010Prop51ColorIndex
 90
      256
102
RTVSPost2010Prop51ColorRGB
 90
-16777216
102
RTVSPost2010PropOp51
 70
     0
102
RTVSPost2010Prop52
140
1.0
102
RTVSPost2010PropOp52
 70
     0
102
RTVSPost2010Prop53
 90
        2
102
RTVSPost2010PropOp53
 70
     1
102
RTVSPost2010Prop54
  1
strokes_ogs.tif
102
RTVSPost2010PropOp54
 70
     1
102
RTVSPost2010Prop55
280
     0
102
RTVSPost2010PropOp55
 70
     1
102
RTVSPost2010Prop56
140
1.0
102
RTVSPost2010PropOp56
 70
     1
102
RTVSPost2010Prop57
140
1.0
102
RTVSPost2010PropOp57
 70
     1
  0
XRECORD
  5
41C
102
{ACAD_REACTORS
330
41B
102
}
330
41B
100
AcDbXrecord
280
     1
102
RTVSPost2010Prop28
280
     0
102
RTVSPost2010PropOp28
 70
     1
102
RTVSPost2010Prop29
280
     1
102
RTVSPost2010PropOp29
 70
     1
102
RTVSPost2010Prop30
280
     1
102
RTVSPost2010PropOp30
 70
     1
102
RTVSPost2010Prop31
280
     0
102
RTVSPost2010PropOp31
 70
     1
102
RTVSPost2010Prop32
280
     0
102
RTVSPost2010PropOp32
 70
     1
102
RTVSPost2010Prop33
280
     0
102
RTVSPost2010PropOp33
 70
     1
102
RTVSPost2010Prop34
280
     0
102
RTVSPost2010PropOp34
 70
     1
102
RTVSPost2010Prop35
280
     0
102
RTVSPost2010PropOp35
 70
     1
102
RTVSPost2010Prop36
280
     0
102
RTVSPost2010PropOp36
 70
     1
102
RTVSPost2010Prop37
 90
       50
102
RTVSPost2010PropOp37
 70
     1
102
RTVSPost2010Prop38
140
0.0
102
RTVSPost2010PropOp38
 70
     1
102
RTVSPost2010Prop39
140
1.0
102
RTVSPost2010PropOp39
 70
     1
102
RTVSPost2010Prop40
 90
        0
102
RTVSPost2010PropOp40
 70
     1
102
RTVSPost2010Prop41ColorIndex
 90
       18
102
RTVSPost2010Prop41ColorRGB
 90
        0
102
RTVSPost2010PropOp41
 70
     1
102
RTVSPost2010Prop42
 90
       50
102
RTVSPost2010PropOp42
 70
     1
102
RTVSPost2010Prop43
 90
        3
102
RTVSPost2010PropOp43
 70
     1
102
RTVSPost2010Prop44ColorIndex
 90
        5
102
RTVSPost2010Prop44ColorRGB
 90
      255
102
RTVSPost2010PropOp44
 70
     1
102
RTVSPost2010Prop45
280
     0
102
RTVSPost2010PropOp45
 70
     1
102
RTVSPost2010Prop46
 90
       50
102
RTVSPost2010PropOp46
 70
     1
102
RTVSPost2010Prop47
 90
       50
102
RTVSPost2010PropOp47
 70
     1
102
RTVSPost2010Prop48
 90
       50
102
RTVSPost2010PropOp48
 70
     1
102
RTVSPost2010Prop49
280
     0
102
RTVSPost2010PropOp49
 70
     1
102
RTVSPost2010Prop50
 90
       50
102
RTVSPost2010PropOp50
 70
     1
102
RTVSPost2010Prop51ColorIndex
 90
      256
102
RTVSPost2010Prop51ColorRGB
 90
-16777216
102
RTVSPost2010PropOp51
 70
     0
102
RTVSPost2010Prop52
140
1.0
102
RTVSPost2010PropOp52
 70
     0
102
RTVSPost2010Prop53
 90
        2
102
RTVSPost2010PropOp53
 70
     1
102
RTVSPost2010Prop54
  1
strokes_ogs.tif
102
RTVSPost2010PropOp54
 70
     1
102
RTVSPost2010Prop55
280
     0
102
RTVSPost2010PropOp55
 70
     1
102
RTVSPost2010Prop56
140
1.0
102
RTVSPost2010PropOp56
 70
     1
102
RTVSPost2010Prop57
140
1.0
102
RTVSPost2010PropOp57
 70
     1
  0
XRECORD
  5
41A
102
{ACAD_REACTORS
330
419
102
}
330
419
100
AcDbXrecord
280
     1
102
RTVSPost2010Prop28
280
     0
102
RTVSPost2010PropOp28
 70
     1
102
RTVSPost2010Prop29
280
     1
102
RTVSPost2010PropOp29
 70
     1
102
RTVSPost2010Prop30
280
     1
102
RTVSPost2010PropOp30
 70
     1
102
RTVSPost2010Prop31
280
     0
102
RTVSPost2010PropOp31
 70
     1
102
RTVSPost2010Prop32
280
     0
102
RTVSPost2010PropOp32
 70
     1
102
RTVSPost2010Prop33
280
     0
102
RTVSPost2010PropOp33
 70
     1
102
RTVSPost2010Prop34
280
     0
102
RTVSPost2010PropOp34
 70
     1
102
RTVSPost2010Prop35
280
     0
102
RTVSPost2010PropOp35
 70
     1
102
RTVSPost2010Prop36
280
     0
102
RTVSPost2010PropOp36
 70
     1
102
RTVSPost2010Prop37
 90
       50
102
RTVSPost2010PropOp37
 70
     1
102
RTVSPost2010Prop38
140
0.0
102
RTVSPost2010PropOp38
 70
     1
102
RTVSPost2010Prop39
140
1.0
102
RTVSPost2010PropOp39
 70
     1
102
RTVSPost2010Prop40
 90
        0
102
RTVSPost2010PropOp40
 70
     1
102
RTVSPost2010Prop41ColorIndex
 90
       18
102
RTVSPost2010Prop41ColorRGB
 90
        0
102
RTVSPost2010PropOp41
 70
     1
102
RTVSPost2010Prop42
 90
       50
102
RTVSPost2010PropOp42
 70
     1
102
RTVSPost2010Prop43
 90
        3
102
RTVSPost2010PropOp43
 70
     1
102
RTVSPost2010Prop44ColorIndex
 90
        5
102
RTVSPost2010Prop44ColorRGB
 90
      255
102
RTVSPost2010PropOp44
 70
     1
102
RTVSPost2010Prop45
280
     0
102
RTVSPost2010PropOp45
 70
     1
102
RTVSPost2010Prop46
 90
       50
102
RTVSPost2010PropOp46
 70
     1
102
RTVSPost2010Prop47
 90
       50
102
RTVSPost2010PropOp47
 70
     1
102
RTVSPost2010Prop48
 90
       50
102
RTVSPost2010PropOp48
 70
     1
102
RTVSPost2010Prop49
280
     0
102
RTVSPost2010PropOp49
 70
     1
102
RTVSPost2010Prop50
 90
       50
102
RTVSPost2010PropOp50
 70
     1
102
RTVSPost2010Prop51ColorIndex
 90
      256
102
RTVSPost2010Prop51ColorRGB
 90
-16777216
102
RTVSPost2010PropOp51
 70
     0
102
RTVSPost2010Prop52
140
1.0
102
RTVSPost2010PropOp52
 70
     0
102
RTVSPost2010Prop53
 90
        2
102
RTVSPost2010PropOp53
 70
     1
102
RTVSPost2010Prop54
  1
strokes_ogs.tif
102
RTVSPost2010PropOp54
 70
     1
102
RTVSPost2010Prop55
280
     0
102
RTVSPost2010PropOp55
 70
     1
102
RTVSPost2010Prop56
140
1.0
102
RTVSPost2010PropOp56
 70
     1
102
RTVSPost2010Prop57
140
1.0
102
RTVSPost2010PropOp57
 70
     1
  0
XRECORD
  5
414
102
{ACAD_REACTORS
330
413
102
}
330
413
100
AcDbXrecord
280
     1
102
RTVSPost2010Prop28
280
     0
102
RTVSPost2010PropOp28
 70
     1
102
RTVSPost2010Prop29
280
     1
102
RTVSPost2010PropOp29
 70
     1
102
RTVSPost2010Prop30
280
     1
102
RTVSPost2010PropOp30
 70
     1
102
RTVSPost2010Prop31
280
     0
102
RTVSPost2010PropOp31
 70
     1
102
RTVSPost2010Prop32
280
     0
102
RTVSPost2010PropOp32
 70
     1
102
RTVSPost2010Prop33
280
     0
102
RTVSPost2010PropOp33
 70
     1
102
RTVSPost2010Prop34
280
     0
102
RTVSPost2010PropOp34
 70
     1
102
RTVSPost2010Prop35
280
     0
102
RTVSPost2010PropOp35
 70
     1
102
RTVSPost2010Prop36
280
     0
102
RTVSPost2010PropOp36
 70
     1
102
RTVSPost2010Prop37
 90
       50
102
RTVSPost2010PropOp37
 70
     1
102
RTVSPost2010Prop38
140
0.0
102
RTVSPost2010PropOp38
 70
     1
102
RTVSPost2010Prop39
140
1.0
102
RTVSPost2010PropOp39
 70
     1
102
RTVSPost2010Prop40
 90
        0
102
RTVSPost2010PropOp40
 70
     1
102
RTVSPost2010Prop41ColorIndex
 90
       18
102
RTVSPost2010Prop41ColorRGB
 90
        0
102
RTVSPost2010PropOp41
 70
     1
102
RTVSPost2010Prop42
 90
       50
102
RTVSPost2010PropOp42
 70
     1
102
RTVSPost2010Prop43
 90
        3
102
RTVSPost2010PropOp43
 70
     1
102
RTVSPost2010Prop44ColorIndex
 90
        5
102
RTVSPost2010Prop44ColorRGB
 90
      255
102
RTVSPost2010PropOp44
 70
     1
102
RTVSPost2010Prop45
280
     0
102
RTVSPost2010PropOp45
 70
     1
102
RTVSPost2010Prop46
 90
       50
102
RTVSPost2010PropOp46
 70
     1
102
RTVSPost2010Prop47
 90
       50
102
RTVSPost2010PropOp47
 70
     1
102
RTVSPost2010Prop48
 90
       50
102
RTVSPost2010PropOp48
 70
     1
102
RTVSPost2010Prop49
280
     0
102
RTVSPost2010PropOp49
 70
     1
102
RTVSPost2010Prop50
 90
       50
102
RTVSPost2010PropOp50
 70
     1
102
RTVSPost2010Prop51ColorIndex
 90
      256
102
RTVSPost2010Prop51ColorRGB
 90
-16777216
102
RTVSPost2010PropOp51
 70
     0
102
RTVSPost2010Prop52
140
1.0
102
RTVSPost2010PropOp52
 70
     0
102
RTVSPost2010Prop53
 90
        2
102
RTVSPost2010PropOp53
 70
     1
102
RTVSPost2010Prop54
  1
strokes_ogs.tif
102
RTVSPost2010PropOp54
 70
     1
102
RTVSPost2010Prop55
280
     0
102
RTVSPost2010PropOp55
 70
     1
102
RTVSPost2010Prop56
140
1.0
102
RTVSPost2010PropOp56
 70
     1
102
RTVSPost2010Prop57
140
1.0
102
RTVSPost2010PropOp57
 70
     1
  0
XRECORD
  5
416
102
{ACAD_REACTORS
330
415
102
}
330
415
100
AcDbXrecord
280
     1
102
RTVSPost2010Prop28
280
     0
102
RTVSPost2010PropOp28
 70
     1
102
RTVSPost2010Prop29
280
     1
102
RTVSPost2010PropOp29
 70
     1
102
RTVSPost2010Prop30
280
     1
102
RTVSPost2010PropOp30
 70
     1
102
RTVSPost2010Prop31
280
     0
102
RTVSPost2010PropOp31
 70
     1
102
RTVSPost2010Prop32
280
     0
102
RTVSPost2010PropOp32
 70
     1
102
RTVSPost2010Prop33
280
     0
102
RTVSPost2010PropOp33
 70
     1
102
RTVSPost2010Prop34
280
     0
102
RTVSPost2010PropOp34
 70
     1
102
RTVSPost2010Prop35
280
     0
102
RTVSPost2010PropOp35
 70
     1
102
RTVSPost2010Prop36
280
     0
102
RTVSPost2010PropOp36
 70
     1
102
RTVSPost2010Prop37
 90
       50
102
RTVSPost2010PropOp37
 70
     1
102
RTVSPost2010Prop38
140
0.0
102
RTVSPost2010PropOp38
 70
     1
102
RTVSPost2010Prop39
140
1.0
102
RTVSPost2010PropOp39
 70
     1
102
RTVSPost2010Prop40
 90
        0
102
RTVSPost2010PropOp40
 70
     1
102
RTVSPost2010Prop41ColorIndex
 90
       18
102
RTVSPost2010Prop41ColorRGB
 90
        0
102
RTVSPost2010PropOp41
 70
     1
102
RTVSPost2010Prop42
 90
       50
102
RTVSPost2010PropOp42
 70
     1
102
RTVSPost2010Prop43
 90
        3
102
RTVSPost2010PropOp43
 70
     1
102
RTVSPost2010Prop44ColorIndex
 90
        5
102
RTVSPost2010Prop44ColorRGB
 90
      255
102
RTVSPost2010PropOp44
 70
     1
102
RTVSPost2010Prop45
280
     0
102
RTVSPost2010PropOp45
 70
     1
102
RTVSPost2010Prop46
 90
       50
102
RTVSPost2010PropOp46
 70
     1
102
RTVSPost2010Prop47
 90
       50
102
RTVSPost2010PropOp47
 70
     1
102
RTVSPost2010Prop48
 90
       50
102
RTVSPost2010PropOp48
 70
     1
102
RTVSPost2010Prop49
280
     0
102
RTVSPost2010PropOp49
 70
     1
102
RTVSPost2010Prop50
 90
       50
102
RTVSPost2010PropOp50
 70
     1
102
RTVSPost2010Prop51ColorIndex
 90
      256
102
RTVSPost2010Prop51ColorRGB
 90
-16777216
102
RTVSPost2010PropOp51
 70
     0
102
RTVSPost2010Prop52
140
1.0
102
RTVSPost2010PropOp52
 70
     0
102
RTVSPost2010Prop53
 90
        2
102
RTVSPost2010PropOp53
 70
     1
102
RTVSPost2010Prop54
  1
strokes_ogs.tif
102
RTVSPost2010PropOp54
 70
     1
102
RTVSPost2010Prop55
280
     0
102
RTVSPost2010PropOp55
 70
     1
102
RTVSPost2010Prop56
140
1.0
102
RTVSPost2010PropOp56
 70
     1
102
RTVSPost2010Prop57
140
1.0
102
RTVSPost2010PropOp57
 70
     1
  0
XRECORD
  5
406
102
{ACAD_REACTORS
330
405
102
}
330
405
100
AcDbXrecord
280
     1
102
RTVSPost2010Prop28
280
     0
102
RTVSPost2010PropOp28
 70
     1
102
RTVSPost2010Prop29
280
     1
102
RTVSPost2010PropOp29
 70
     1
102
RTVSPost2010Prop30
280
     1
102
RTVSPost2010PropOp30
 70
     1
102
RTVSPost2010Prop31
280
     0
102
RTVSPost2010PropOp31
 70
     1
102
RTVSPost2010Prop32
280
     0
102
RTVSPost2010PropOp32
 70
     1
102
RTVSPost2010Prop33
280
     0
102
RTVSPost2010PropOp33
 70
     1
102
RTVSPost2010Prop34
280
     0
102
RTVSPost2010PropOp34
 70
     1
102
RTVSPost2010Prop35
280
     0
102
RTVSPost2010PropOp35
 70
     1
102
RTVSPost2010Prop36
280
     0
102
RTVSPost2010PropOp36
 70
     1
102
RTVSPost2010Prop37
 90
       50
102
RTVSPost2010PropOp37
 70
     1
102
RTVSPost2010Prop38
140
0.0
102
RTVSPost2010PropOp38
 70
     1
102
RTVSPost2010Prop39
140
1.0
102
RTVSPost2010PropOp39
 70
     1
102
RTVSPost2010Prop40
 90
        0
102
RTVSPost2010PropOp40
 70
     1
102
RTVSPost2010Prop41ColorIndex
 90
       18
102
RTVSPost2010Prop41ColorRGB
 90
        0
102
RTVSPost2010PropOp41
 70
     1
102
RTVSPost2010Prop42
 90
       50
102
RTVSPost2010PropOp42
 70
     1
102
RTVSPost2010Prop43
 90
        3
102
RTVSPost2010PropOp43
 70
     1
102
RTVSPost2010Prop44ColorIndex
 90
        5
102
RTVSPost2010Prop44ColorRGB
 90
      255
102
RTVSPost2010PropOp44
 70
     1
102
RTVSPost2010Prop45
280
     0
102
RTVSPost2010PropOp45
 70
     1
102
RTVSPost2010Prop46
 90
       50
102
RTVSPost2010PropOp46
 70
     1
102
RTVSPost2010Prop47
 90
       50
102
RTVSPost2010PropOp47
 70
     1
102
RTVSPost2010Prop48
 90
       50
102
RTVSPost2010PropOp48
 70
     1
102
RTVSPost2010Prop49
280
     0
102
RTVSPost2010PropOp49
 70
     1
102
RTVSPost2010Prop50
 90
       50
102
RTVSPost2010PropOp50
 70
     1
102
RTVSPost2010Prop51ColorIndex
 90
      256
102
RTVSPost2010Prop51ColorRGB
 90
-16777216
102
RTVSPost2010PropOp51
 70
     0
102
RTVSPost2010Prop52
140
1.0
102
RTVSPost2010PropOp52
 70
     0
102
RTVSPost2010Prop53
 90
        2
102
RTVSPost2010PropOp53
 70
     1
102
RTVSPost2010Prop54
  1
strokes_ogs.tif
102
RTVSPost2010PropOp54
 70
     1
102
RTVSPost2010Prop55
280
     0
102
RTVSPost2010PropOp55
 70
     1
102
RTVSPost2010Prop56
140
1.0
102
RTVSPost2010PropOp56
 70
     1
102
RTVSPost2010Prop57
140
1.0
102
RTVSPost2010PropOp57
 70
     1
  0
XRECORD
  5
3F8
102
{ACAD_REACTORS
330
3F7
102
}
330
3F7
100
AcDbXrecord
280
     1
102
RTVSPost2010Prop28
280
     0
102
RTVSPost2010PropOp28
 70
     1
102
RTVSPost2010Prop29
280
     1
102
RTVSPost2010PropOp29
 70
     1
102
RTVSPost2010Prop30
280
     1
102
RTVSPost2010PropOp30
 70
     1
102
RTVSPost2010Prop31
280
     0
102
RTVSPost2010PropOp31
 70
     1
102
RTVSPost2010Prop32
280
     0
102
RTVSPost2010PropOp32
 70
     1
102
RTVSPost2010Prop33
280
     0
102
RTVSPost2010PropOp33
 70
     1
102
RTVSPost2010Prop34
280
     0
102
RTVSPost2010PropOp34
 70
     1
102
RTVSPost2010Prop35
280
     0
102
RTVSPost2010PropOp35
 70
     1
102
RTVSPost2010Prop36
280
     0
102
RTVSPost2010PropOp36
 70
     1
102
RTVSPost2010Prop37
 90
       50
102
RTVSPost2010PropOp37
 70
     1
102
RTVSPost2010Prop38
140
0.0
102
RTVSPost2010PropOp38
 70
     1
102
RTVSPost2010Prop39
140
1.0
102
RTVSPost2010PropOp39
 70
     1
102
RTVSPost2010Prop40
 90
        0
102
RTVSPost2010PropOp40
 70
     1
102
RTVSPost2010Prop41ColorIndex
 90
       18
102
RTVSPost2010Prop41ColorRGB
 90
        0
102
RTVSPost2010PropOp41
 70
     1
102
RTVSPost2010Prop42
 90
       50
102
RTVSPost2010PropOp42
 70
     1
102
RTVSPost2010Prop43
 90
        3
102
RTVSPost2010PropOp43
 70
     1
102
RTVSPost2010Prop44ColorIndex
 90
        5
102
RTVSPost2010Prop44ColorRGB
 90
      255
102
RTVSPost2010PropOp44
 70
     1
102
RTVSPost2010Prop45
280
     0
102
RTVSPost2010PropOp45
 70
     1
102
RTVSPost2010Prop46
 90
       50
102
RTVSPost2010PropOp46
 70
     1
102
RTVSPost2010Prop47
 90
       50
102
RTVSPost2010PropOp47
 70
     1
102
RTVSPost2010Prop48
 90
       50
102
RTVSPost2010PropOp48
 70
     1
102
RTVSPost2010Prop49
280
     0
102
RTVSPost2010PropOp49
 70
     1
102
RTVSPost2010Prop50
 90
       50
102
RTVSPost2010PropOp50
 70
     1
102
RTVSPost2010Prop51ColorIndex
 90
      256
102
RTVSPost2010Prop51ColorRGB
 90
-16777216
102
RTVSPost2010PropOp51
 70
     0
102
RTVSPost2010Prop52
140
1.0
102
RTVSPost2010PropOp52
 70
     0
102
RTVSPost2010Prop53
 90
        2
102
RTVSPost2010PropOp53
 70
     1
102
RTVSPost2010Prop54
  1
strokes_ogs.tif
102
RTVSPost2010PropOp54
 70
     1
102
RTVSPost2010Prop55
280
     0
102
RTVSPost2010PropOp55
 70
     1
102
RTVSPost2010Prop56
140
1.0
102
RTVSPost2010PropOp56
 70
     1
102
RTVSPost2010Prop57
140
1.0
102
RTVSPost2010PropOp57
 70
     1
  0
XRECORD
  5
418
102
{ACAD_REACTORS
330
417
102
}
330
417
100
AcDbXrecord
280
     1
102
RTVSPost2010Prop28
280
     0
102
RTVSPost2010PropOp28
 70
     1
102
RTVSPost2010Prop29
280
     1
102
RTVSPost2010PropOp29
 70
     1
102
RTVSPost2010Prop30
280
     1
102
RTVSPost2010PropOp30
 70
     1
102
RTVSPost2010Prop31
280
     0
102
RTVSPost2010PropOp31
 70
     1
102
RTVSPost2010Prop32
280
     0
102
RTVSPost2010PropOp32
 70
     1
102
RTVSPost2010Prop33
280
     0
102
RTVSPost2010PropOp33
 70
     1
102
RTVSPost2010Prop34
280
     0
102
RTVSPost2010PropOp34
 70
     1
102
RTVSPost2010Prop35
280
     0
102
RTVSPost2010PropOp35
 70
     1
102
RTVSPost2010Prop36
280
     0
102
RTVSPost2010PropOp36
 70
     1
102
RTVSPost2010Prop37
 90
       50
102
RTVSPost2010PropOp37
 70
     1
102
RTVSPost2010Prop38
140
0.0
102
RTVSPost2010PropOp38
 70
     1
102
RTVSPost2010Prop39
140
1.0
102
RTVSPost2010PropOp39
 70
     1
102
RTVSPost2010Prop40
 90
        0
102
RTVSPost2010PropOp40
 70
     1
102
RTVSPost2010Prop41ColorIndex
 90
       18
102
RTVSPost2010Prop41ColorRGB
 90
        0
102
RTVSPost2010PropOp41
 70
     1
102
RTVSPost2010Prop42
 90
       50
102
RTVSPost2010PropOp42
 70
     1
102
RTVSPost2010Prop43
 90
        3
102
RTVSPost2010PropOp43
 70
     1
102
RTVSPost2010Prop44ColorIndex
 90
        5
102
RTVSPost2010Prop44ColorRGB
 90
      255
102
RTVSPost2010PropOp44
 70
     1
102
RTVSPost2010Prop45
280
     0
102
RTVSPost2010PropOp45
 70
     1
102
RTVSPost2010Prop46
 90
       50
102
RTVSPost2010PropOp46
 70
     1
102
RTVSPost2010Prop47
 90
       50
102
RTVSPost2010PropOp47
 70
     1
102
RTVSPost2010Prop48
 90
       50
102
RTVSPost2010PropOp48
 70
     1
102
RTVSPost2010Prop49
280
     0
102
RTVSPost2010PropOp49
 70
     1
102
RTVSPost2010Prop50
 90
       50
102
RTVSPost2010PropOp50
 70
     1
102
RTVSPost2010Prop51ColorIndex
 90
      256
102
RTVSPost2010Prop51ColorRGB
 90
-16777216
102
RTVSPost2010PropOp51
 70
     0
102
RTVSPost2010Prop52
140
1.0
102
RTVSPost2010PropOp52
 70
     0
102
RTVSPost2010Prop53
 90
        2
102
RTVSPost2010PropOp53
 70
     1
102
RTVSPost2010Prop54
  1
strokes_ogs.tif
102
RTVSPost2010PropOp54
 70
     1
102
RTVSPost2010Prop55
280
     0
102
RTVSPost2010PropOp55
 70
     1
102
RTVSPost2010Prop56
140
1.0
102
RTVSPost2010PropOp56
 70
     1
102
RTVSPost2010Prop57
140
1.0
102
RTVSPost2010PropOp57
 70
     1
  0
ENDSEC
  0
EOF
